<?xml version="1.0" standalone="no"?>
<!DOCTYPE svg PUBLIC "-//W3C//DTD SVG 1.1//EN" "http://www.w3.org/Graphics/SVG/1.1/DTD/svg11.dtd" >
<svg xmlns="http://www.w3.org/2000/svg" xmlns:xlink="http://www.w3.org/1999/xlink" version="1.1">
<metadata>
Created by FontForge 20150824 at Wed May 18 23:57:57 2016
 By Everything Fonts
Copyright 2006, 2009 for TeX Gyre extensions by B. Jackowski and J.M. Nowacki (on behalf of TeX users groups). This work is released under the GUST Font License --  see http://tug.org/fonts/licenses/GUST-FONT-LICENSE.txt for details.
</metadata>
<defs>
<font id="texgyreadventorbold" horiz-adv-x="640" >
  <font-face 
    font-family="texgyreadventorbold"
    font-weight="700"
    font-stretch="normal"
    units-per-em="1000"
    panose-1="0 0 8 0 0 0 0 0 0 0"
    ascent="815"
    descent="-185"
    x-height="554"
    cap-height="739"
    bbox="-679 -304 1661 1236"
    underline-thickness="90"
    underline-position="-183"
    unicode-range="U+0020-FB04"
  />
<missing-glyph horiz-adv-x="280" 
 />
    <glyph glyph-name="I_J" unicode="IJ" horiz-adv-x="713" 
d="M191 0h-137v739h137v-739zM659 212q0 -104 -53.5 -164.5t-146.5 -60.5q-83 0 -139.5 48.5t-65.5 139.5h137q14 -56 65 -56q66 0 66 97v523h137v-527z" />
    <glyph glyph-name="i_j" unicode="ij" horiz-adv-x="499" 
d="M187 0h-133v554h133v-554zM188 634h-133v133h133v-133zM445 37q0 -109 -50.5 -165.5t-137.5 -56.5v129q37 7 46 22t9 74v514h133v-517zM446 634h-133v133h133v-133z" />
    <glyph glyph-name="f_k" unicode="fk" horiz-adv-x="860" 
d="M274 611h-13q-39 0 -54 -14.5t-16 -52.5h75v-111h-75v-433h-133v433h-48v111h48q20 195 183 195q17 0 33 -2v-126zM835 0h-179l-189 259v-259h-133v739h133v-446l177 261h159l-198 -271z" />
    <glyph glyph-name="f_f" unicode="ff" horiz-adv-x="560" 
d="M550 611h-13q-39 0 -54 -14.5t-16 -52.5h75v-111h-75v-433h-133v433h-143v-433h-133v433h-48v111h48q20 195 183 195q17 0 33 -2v-126h-13q-39 0 -54 -14.5t-16 -52.5h143q20 195 183 195q17 0 33 -2v-126z" />
    <glyph glyph-name="f_i" unicode="fi" horiz-adv-x="520" 
d="M274 611h-13q-39 0 -54 -14.5t-16 -52.5h75v-111h-75v-433h-133v433h-48v111h48q20 195 183 195q17 0 33 -2v-126zM467 0h-133v554h133v-554zM468 634h-133v133h133v-133z" />
    <glyph glyph-name="f_l" unicode="fl" horiz-adv-x="520" 
d="M274 611h-13q-39 0 -54 -14.5t-16 -52.5h75v-111h-75v-433h-133v433h-48v111h48q20 195 183 195q17 0 33 -2v-126zM467 0h-133v739h133v-739z" />
    <glyph glyph-name="f_f_i" unicode="&#xfb00;i" horiz-adv-x="796" 
d="M550 611h-13q-39 0 -54 -14.5t-16 -52.5h75v-111h-75v-433h-133v433h-143v-433h-133v433h-48v111h48q20 195 183 195q17 0 33 -2v-126h-13q-39 0 -54 -14.5t-16 -52.5h143q20 195 183 195q17 0 33 -2v-126zM743 0h-133v554h133v-554zM744 634h-133v133h133v-133z" />
    <glyph glyph-name="f_f_l" unicode="ffl" horiz-adv-x="796" 
d="M550 611h-13q-39 0 -54 -14.5t-16 -52.5h75v-111h-75v-433h-133v433h-143v-433h-133v433h-48v111h48q20 195 183 195q17 0 33 -2v-126h-13q-39 0 -54 -14.5t-16 -52.5h143q20 195 183 195q17 0 33 -2v-126zM743 0h-133v739h133v-739z" />
    <glyph glyph-name=".notdef" horiz-adv-x="280" 
 />
    <glyph glyph-name=".null" horiz-adv-x="0" 
 />
    <glyph glyph-name="nonmarkingreturn" horiz-adv-x="333" 
 />
    <glyph glyph-name="space" unicode=" " horiz-adv-x="280" 
 />
    <glyph glyph-name="exclam" unicode="!" horiz-adv-x="280" 
d="M205 188h-133v551h133v-551zM205 0h-133v128h133v-128z" />
    <glyph glyph-name="quotedbl" unicode="&#x22;" horiz-adv-x="360" 
d="M283 513h-76v226h76v-226zM150 513h-76v226h76v-226z" />
    <glyph glyph-name="numbersign" unicode="#" horiz-adv-x="560" 
d="M526 422h-103l-12 -89h89v-100h-102l-32 -233h-90l32 233h-87l-31 -233h-91l32 233h-97v100h110l12 89h-96v99h110l29 218h90l-29 -218h87l29 218h90l-29 -218h89v-99zM333 422h-86l-13 -89h87z" />
    <glyph glyph-name="dollar" unicode="$" horiz-adv-x="560" 
d="M494 251q0 -77 -38.5 -131.5t-108.5 -73.5v-132h-127v132q-75 21 -118 73t-43 117v13h134q2 -39 25 -62.5t59 -23.5t60 24t24 59q0 45 -39 70q-22 14 -105 45q-129 47 -129 180q0 68 33.5 117.5t98.5 64.5v133h127v-133q51 -10 86.5 -59t37.5 -113h-126q-12 62 -65 62
q-26 0 -42.5 -18t-16.5 -46q0 -35 20.5 -54t93.5 -46q92 -32 125.5 -74.5t33.5 -123.5z" />
    <glyph glyph-name="percent" unicode="%" horiz-adv-x="860" 
d="M631 739l-306 -739h-102l305 739h103zM835 168q0 -75 -53 -128t-128 -53t-128 53t-53 127q0 76 53 128.5t129 52.5q73 0 126.5 -53t53.5 -127zM728 168q0 30 -22 52t-52 22t-51.5 -21.5t-21.5 -52.5t21.5 -52.5t51.5 -21.5t52 22t22 52zM383 572q0 -75 -53 -128t-128 -53
t-128 53t-53 127q0 76 53 128.5t129 52.5q73 0 126.5 -53t53.5 -127zM276 572q0 30 -22 52t-52 22t-51.5 -21.5t-21.5 -52.5t21.5 -52.5t51.5 -21.5t52 22t22 52z" />
    <glyph glyph-name="ampersand" unicode="&#x26;" horiz-adv-x="680" 
d="M664 73l-95 -86l-105 111q-47 -63 -88 -87t-100 -24q-101 0 -171 68.5t-70 167.5q0 67 33 117t105 93q-36 41 -49 69t-13 67q0 77 54 130t133 53q81 0 135.5 -52t54.5 -130q0 -60 -25 -99.5t-91 -81.5l67 -75l72 119h149l-128 -219zM361 566q0 27 -17 44t-44 17
q-26 0 -44 -17.5t-18 -42.5q0 -20 11 -39t40 -47q42 23 57 40t15 45zM372 198l-115 124q-89 -40 -89 -107q0 -41 28.5 -68.5t71.5 -27.5q33 0 56 17t48 62z" />
    <glyph glyph-name="quotesingle" unicode="'" horiz-adv-x="220" 
d="M150 513h-76v226h76v-226z" />
    <glyph glyph-name="parenleft" unicode="(" horiz-adv-x="380" 
d="M349 -137q-121 43 -198 168.5t-77 268.5q0 148 74.5 267.5t200.5 171.5v-144q-140 -108 -140 -295q0 -88 39.5 -170t100.5 -122v-145z" />
    <glyph glyph-name="parenright" unicode=")" horiz-adv-x="380" 
d="M312 302q0 -148 -74.5 -267.5t-200.5 -171.5v144q140 108 140 295q0 88 -39.5 170t-100.5 122v145q121 -43 198 -169t77 -268z" />
    <glyph glyph-name="asterisk" unicode="*" horiz-adv-x="440" 
d="M371 554l-97 5l53 -80l-57 -38l-47 88l-43 -88l-64 31l52 89l-98 -7v71l99 -5l-53 86l63 32l44 -86l46 87l59 -36l-54 -83l97 6v-72z" />
    <glyph glyph-name="plus" unicode="+" horiz-adv-x="600" 
d="M546 181h-177v-177h-138v177h-177v138h177v177h138v-177h177v-138z" />
    <glyph glyph-name="comma" unicode="," horiz-adv-x="280" 
d="M205 -7q0 -60 -34.5 -96.5t-98.5 -36.5v67q32 6 45.5 19t13.5 37q0 11 -1 17h-58v128h133v-135z" />
    <glyph glyph-name="hyphen" unicode="-" horiz-adv-x="420" 
d="M351 229h-277v118h277v-118z" />
    <glyph glyph-name="period" unicode="." horiz-adv-x="280" 
d="M205 0h-133v128h133v-128z" />
    <glyph glyph-name="slash" unicode="/" horiz-adv-x="460" 
d="M443 739l-323 -867h-94l323 867h94z" />
    <glyph glyph-name="zero" unicode="0" horiz-adv-x="560" 
d="M525 247q0 -123 -65.5 -191.5t-175.5 -68.5q-116 0 -185 68.5t-69 191.5v251q0 117 67 185.5t181 68.5q112 0 179.5 -67t67.5 -180v-258zM392 248v250q0 64 -29.5 98t-83.5 34t-85 -35.5t-31 -96.5v-247q0 -69 30 -105.5t87 -36.5q112 0 112 139z" />
    <glyph glyph-name="one" unicode="1" horiz-adv-x="560" 
d="M379 0h-133v614h-93v125h226v-739z" />
    <glyph glyph-name="two" unicode="2" horiz-adv-x="560" 
d="M520 512q0 -69 -30 -122t-113 -128l-151 -137h291v-125h-478v117l263 249q85 81 85 148q0 50 -30.5 83t-76.5 33q-52 0 -83.5 -40t-31.5 -106h-131q0 125 68 196.5t177 71.5q103 0 172 -69t69 -171z" />
    <glyph glyph-name="three" unicode="3" horiz-adv-x="560" 
d="M518 235q0 -107 -70.5 -177.5t-177.5 -70.5q-106 0 -177.5 66.5t-77.5 170.5h134q7 -52 39.5 -83.5t80.5 -31.5q50 0 83 35t33 88q0 56 -39.5 90t-105.5 34h-22v128q62 1 88 19t26 57q0 31 -18 50.5t-47 19.5q-53 0 -62 -67h-135q7 91 61.5 140t134.5 49q86 0 142.5 -57
t56.5 -142q0 -82 -62 -127q115 -51 115 -191z" />
    <glyph glyph-name="four" unicode="4" horiz-adv-x="560" 
d="M530 111h-78v-111h-133v111h-319v108l340 520h112v-509h78v-119zM319 230v285l-184 -285h184z" />
    <glyph glyph-name="five" unicode="5" horiz-adv-x="560" 
d="M520 247q0 -111 -72 -185.5t-179 -74.5q-100 0 -176 67t-81 167h133q10 -54 41 -83t79 -29q54 0 88 38t34 98q0 56 -34.5 94t-85.5 38q-58 0 -103 -56l-118 32l69 386h334v-125h-234l-24 -136q50 21 95 21q101 0 167.5 -71.5t66.5 -180.5z" />
    <glyph glyph-name="six" unicode="6" horiz-adv-x="560" 
d="M533 252q0 -115 -71.5 -190t-181.5 -75q-112 0 -185.5 72.5t-73.5 182.5q0 53 16.5 100t56.5 107l193 290h159l-177 -263q30 10 60 10q88 0 146 -66.5t58 -167.5zM400 239q0 57 -34.5 94t-87.5 37q-55 0 -89.5 -36t-34.5 -95q0 -57 35.5 -93.5t90.5 -36.5q53 0 86.5 36
t33.5 94z" />
    <glyph glyph-name="seven" unicode="7" horiz-adv-x="560" 
d="M500 614l-270 -614h-150l280 614h-295v125h435v-125z" />
    <glyph glyph-name="eight" unicode="8" horiz-adv-x="560" 
d="M523 232q0 -105 -70 -175t-175 -70q-104 0 -175.5 70.5t-71.5 173.5q0 121 106 180q-34 37 -47.5 67t-13.5 71q0 85 59 144t144 59q87 0 144.5 -57.5t57.5 -143.5q0 -90 -62 -140q55 -33 79.5 -75t24.5 -104zM354 550q0 34 -21.5 57t-52.5 23q-33 0 -55 -23t-22 -58
q0 -33 22.5 -56.5t53.5 -23.5t53 23.5t22 57.5zM390 225q0 48 -32.5 82t-78.5 34q-48 0 -81.5 -33t-33.5 -82q0 -50 33 -83.5t82 -33.5q47 0 79 33.5t32 82.5z" />
    <glyph glyph-name="nine" unicode="9" horiz-adv-x="560" 
d="M532 496q0 -53 -16.5 -100t-56.5 -106l-193 -290h-159l178 263q-32 -12 -60 -12q-86 0 -144.5 68t-58.5 168q0 116 71 190.5t180 74.5q112 0 185.5 -73t73.5 -183zM399 500q0 57 -35.5 93.5t-90.5 36.5q-52 0 -85 -36.5t-33 -93.5t34 -94t87 -37q55 0 89 36.5t34 94.5z
" />
    <glyph glyph-name="colon" unicode=":" horiz-adv-x="280" 
d="M205 0h-133v128h133v-128zM205 369h-133v133h133v-133z" />
    <glyph glyph-name="semicolon" unicode=";" horiz-adv-x="280" 
d="M205 -7q0 -61 -36 -97t-97 -36v67q32 6 45.5 19t13.5 37v17h-59v128h133v-135zM205 369h-133v133h133v-133z" />
    <glyph glyph-name="less" unicode="&#x3c;" horiz-adv-x="600" 
d="M492 -142l-427 338v108l427 338v-176l-273 -216l273 -216v-176z" />
    <glyph glyph-name="equal" unicode="=" horiz-adv-x="600" 
d="M546 273h-492v138h492v-138zM546 89h-492v138h492v-138z" />
    <glyph glyph-name="greater" unicode="&#x3e;" horiz-adv-x="600" 
d="M492 196l-427 -338v176l273 216l-273 216v176l427 -338v-108z" />
    <glyph glyph-name="question" unicode="?" horiz-adv-x="560" 
d="M485 523q0 -50 -22.5 -89.5t-79.5 -89.5q-41 -36 -52.5 -64t-12.5 -93h-133q0 94 23.5 144t98.5 111q45 38 45 85q0 40 -27 66.5t-68 26.5q-79 0 -92 -100h-133q9 112 72 172t156 60q96 0 160.5 -65.5t64.5 -163.5zM318 0h-133v128h133v-128z" />
    <glyph glyph-name="at" unicode="@" horiz-adv-x="740" 
d="M745 397q0 -108 -59 -175.5t-152 -67.5q-80 0 -99 54q-36 -54 -113 -54q-75 0 -120 51.5t-45 139.5q0 99 58 165.5t144 66.5q41 0 67 -13t51 -45l7 54h96l-33 -295q-1 -5 -1 -15q0 -26 27 -26q40 0 69.5 52.5t29.5 123.5q0 125 -78 203t-204 78q-136 0 -226 -91t-90 -229
q0 -131 89.5 -222.5t237.5 -91.5q86 0 149 47l46 -60q-77 -60 -197 -60q-171 0 -283.5 111t-112.5 279q0 166 110.5 277.5t274.5 111.5q160 0 258.5 -100.5t98.5 -268.5zM455 374q0 42 -20.5 66.5t-55.5 24.5q-42 0 -72 -32t-30 -78q0 -44 21 -69.5t57 -25.5q44 0 72 32
t28 82z" />
    <glyph glyph-name="A" unicode="A" horiz-adv-x="740" 
d="M733 0h-151l-79 191h-263l-82 -191h-151l308 739h108zM448 322l-79 224l-79 -224h158z" />
    <glyph glyph-name="B" unicode="B" horiz-adv-x="580" 
d="M548 220q0 -104 -71.5 -162t-211.5 -58h-197v739h152q83 0 125 -7.5t75 -28.5q84 -54 84 -161q0 -52 -19 -84t-63 -55q69 -29 97.5 -72t28.5 -111zM410 223q0 97 -140 97h-65v-189h68q72 0 104.5 22t32.5 70zM367 530q0 75 -106 75h-56v-151h44q62 0 90 18t28 58z" />
    <glyph glyph-name="C" unicode="C" horiz-adv-x="780" 
d="M760 206q-43 -101 -135.5 -160t-205.5 -59q-162 0 -275.5 112.5t-113.5 272.5q0 157 111.5 268.5t268.5 111.5q115 0 208.5 -59.5t141.5 -165.5h-153q-38 49 -84 71t-110 22q-105 0 -175 -72t-70 -177q0 -104 73 -178t175 -74q54 0 96 20t87 67h161z" />
    <glyph glyph-name="D" unicode="D" horiz-adv-x="700" 
d="M660 368q0 -112 -48 -198.5t-133 -128.5q-82 -41 -239 -41h-172v739h169q174 0 262 -53q77 -46 119 -129.5t42 -188.5zM522 368q0 71 -30 127t-83 83q-59 30 -177 30h-27v-477h30q121 0 180 33q49 27 78 82t29 122z" />
    <glyph glyph-name="E" unicode="E" horiz-adv-x="520" 
d="M465 0h-397v739h397v-131h-260v-174h249v-131h-249v-172h260v-131z" />
    <glyph glyph-name="F" unicode="F" horiz-adv-x="480" 
d="M444 608h-239v-174h228v-131h-228v-303h-137v739h376v-131z" />
    <glyph glyph-name="G" unicode="G" horiz-adv-x="840" 
d="M818 359q0 -152 -112 -262t-274 -110q-170 0 -286 111t-116 273q0 159 113.5 270t275.5 111q121 0 223 -65t138 -165h-161q-70 98 -203 98q-108 0 -178 -72.5t-70 -178.5t73.5 -178t182.5 -72q73 0 130 34t87 96h-306v128h483v-18z" />
    <glyph glyph-name="H" unicode="H" horiz-adv-x="680" 
d="M606 0h-137v310h-264v-310h-137v739h137v-298h264v298h137v-739z" />
    <glyph glyph-name="I" unicode="I" horiz-adv-x="280" 
d="M205 0h-137v739h137v-739z" />
    <glyph glyph-name="J" unicode="J" horiz-adv-x="480" 
d="M414 212q0 -104 -53.5 -164.5t-146.5 -60.5q-83 0 -139.5 48.5t-65.5 139.5h137q14 -56 65 -56q66 0 66 97v523h137v-527z" />
    <glyph glyph-name="K" unicode="K" horiz-adv-x="620" 
d="M599 0h-165l-229 325v-325h-137v739h137v-319l229 319h165l-278 -363z" />
    <glyph glyph-name="L" unicode="L" horiz-adv-x="440" 
d="M431 0h-363v739h137v-608h226v-131z" />
    <glyph glyph-name="M" unicode="M" horiz-adv-x="900" 
d="M840 0h-137v554l-193 -554h-112l-193 554v-554h-137v739h188l199 -560l197 560h188v-739z" />
    <glyph glyph-name="N" unicode="N" horiz-adv-x="740" 
d="M667 0h-153l-309 537v-537h-137v739h156l306 -538v538h137v-739z" />
    <glyph glyph-name="O" unicode="O" horiz-adv-x="840" 
d="M800 370q0 -162 -110 -272.5t-271 -110.5q-163 0 -276 111t-113 271q0 162 112.5 272.5t277.5 110.5q158 0 269 -112t111 -270zM662 368q0 106 -70.5 179t-173.5 73q-107 0 -178.5 -72t-71.5 -179q0 -105 72.5 -177.5t177.5 -72.5t174.5 71t69.5 178z" />
    <glyph glyph-name="P" unicode="P" horiz-adv-x="560" 
d="M540 511q0 -64 -26 -116.5t-71 -80.5q-31 -19 -73 -26t-121 -7h-44v-281h-137v739h183q132 0 189 -34q100 -61 100 -194zM402 509q0 57 -34.5 78t-116.5 21h-46v-196h40q89 0 123 23.5t34 73.5z" />
    <glyph glyph-name="Q" unicode="Q" horiz-adv-x="840" 
d="M828 -14q-8 -1 -26 -1q-47 0 -82.5 13.5t-84.5 46.5q-84 -58 -205 -58q-167 0 -283.5 111.5t-116.5 271.5q0 161 114 271.5t280 110.5q168 0 279.5 -110t111.5 -276q0 -145 -89 -237q43 -22 68 -22q13 0 34 3v-124zM519 138q-121 97 -237 97q-28 0 -71 -8
q82 -108 219 -108q47 0 89 19zM677 364q0 110 -72.5 183t-182.5 73q-109 0 -182 -72t-73 -179q0 -17 2 -35q49 13 114 13q88 0 177 -38t157 -105q60 62 60 160z" />
    <glyph glyph-name="R" unicode="R" horiz-adv-x="580" 
d="M568 0h-169l-194 283v-283h-137v739h213q76 0 121 -12t81 -43q78 -66 78 -182q0 -181 -193 -229zM423 498q0 55 -33 82.5t-124 27.5h-61v-222h67q79 0 115 26.5t36 85.5z" />
    <glyph glyph-name="S" unicode="S" horiz-adv-x="520" 
d="M493 224q0 -100 -68 -168.5t-168 -68.5q-99 0 -166.5 60.5t-76.5 163.5h143q9 -92 100 -92q44 0 72 25t28 65q0 49 -34 75q-16 12 -34 20t-94 37q-74 28 -114 79.5t-40 121.5q0 88 63 149t152 61q91 0 152.5 -57t66.5 -153h-142q-3 38 -23 58t-55 20q-34 0 -55 -21
t-21 -54q0 -41 41 -67q11 -7 82 -33q108 -40 149.5 -91t41.5 -130z" />
    <glyph glyph-name="T" unicode="T" horiz-adv-x="420" 
d="M418 608h-137v-608h-137v608h-137v131h411v-131z" />
    <glyph glyph-name="U" unicode="U" 
d="M567 271q0 -138 -68.5 -211t-181.5 -73q-112 0 -180.5 73.5t-68.5 210.5v468h137v-468q0 -82 28.5 -117t84.5 -35q55 0 83.5 34.5t28.5 117.5v468h137v-468z" />
    <glyph glyph-name="V" unicode="V" horiz-adv-x="700" 
d="M694 739l-286 -739h-112l-288 739h144l199 -562l199 562h144z" />
    <glyph glyph-name="W" unicode="W" horiz-adv-x="900" 
d="M898 739l-216 -739h-109l-119 489l-122 -489h-108l-217 739h140l130 -516l126 516h100l124 -516l131 516h140z" />
    <glyph glyph-name="X" unicode="X" horiz-adv-x="680" 
d="M676 0h-159l-177 255l-172 -255h-163l254 368l-254 371h163l172 -258l177 258h159l-256 -371z" />
    <glyph glyph-name="Y" unicode="Y" horiz-adv-x="620" 
d="M626 739l-243 -466v-273h-137v273l-243 466h148l164 -340l163 340h148z" />
    <glyph glyph-name="Z" unicode="Z" horiz-adv-x="500" 
d="M480 0h-462v116l280 492h-265v131h428v-123l-278 -485h297v-131z" />
    <glyph glyph-name="bracketleft" unicode="[" horiz-adv-x="320" 
d="M292 -137q-218 50 -218 324v259q0 115 50.5 187t167.5 106v-147q-51 -22 -67 -60.5t-16 -112.5v-255q0 -61 17.5 -98.5t65.5 -55.5v-147z" />
    <glyph glyph-name="backslash" unicode="\" 
d="M503 0h-94l-325 739h94z" />
    <glyph glyph-name="bracketright" unicode="]" horiz-adv-x="320" 
d="M255 156q0 -115 -50.5 -187t-167.5 -106v147q51 21 67 60t16 113v255q0 61 -17.5 97.5t-65.5 56.5v147q218 -49 218 -324v-259z" />
    <glyph glyph-name="asciicircum" unicode="^" horiz-adv-x="600" 
d="M543 363l-104 -50l-136 276l-136 -276l-104 50l179 376h122z" />
    <glyph glyph-name="underscore" unicode="_" horiz-adv-x="500" 
d="M500 -138h-500v90h500v-90z" />
    <glyph glyph-name="grave" unicode="`" horiz-adv-x="420" 
d="M303 682l-51 -78l-227 120l54 92z" />
    <glyph glyph-name="a" unicode="a" horiz-adv-x="660" 
d="M615 0h-122v72q-40 -45 -83 -65t-101 -20q-121 0 -200 81.5t-79 206.5q0 127 79.5 209.5t202.5 82.5q115 0 181 -87v74h122v-554zM489 273q0 76 -46 124t-117 48t-116.5 -48.5t-45.5 -124.5q0 -73 45.5 -118t118.5 -45q74 0 117.5 46.5t43.5 117.5z" />
    <glyph glyph-name="b" unicode="b" horiz-adv-x="660" 
d="M638 281q0 -126 -76.5 -210t-193.5 -84q-62 0 -105.5 19t-86.5 65v-71h-122v739h133v-236q38 38 78 54.5t94 16.5q119 0 199 -84t80 -209zM504 280q0 74 -46.5 123t-117.5 49q-70 0 -115.5 -48t-45.5 -123q0 -76 46 -124t118 -48q71 0 116 47.5t45 123.5z" />
    <glyph glyph-name="c" unicode="c" 
d="M601 182q-35 -93 -106.5 -144t-168.5 -51q-123 0 -209.5 84.5t-86.5 205.5q0 122 84.5 206t207.5 84q96 0 171.5 -52t107.5 -146h-150q-40 76 -129 76q-69 0 -113.5 -47t-44.5 -120t46 -121t115 -48q79 0 126 73h150z" />
    <glyph glyph-name="d" unicode="d" horiz-adv-x="660" 
d="M613 0h-122v72q-75 -85 -183 -85q-118 0 -198 84t-80 207q0 124 80.5 210t196.5 86q110 0 173 -69v234h133v-739zM490 280q0 73 -47 122.5t-117 49.5q-68 0 -115 -48.5t-47 -119.5q0 -74 47.5 -124.5t117.5 -50.5q68 0 114.5 49.5t46.5 121.5z" />
    <glyph glyph-name="e" unicode="e" 
d="M608 269q0 -27 -5 -51h-429q12 -50 53 -79.5t100 -29.5q41 0 68.5 12.5t53.5 42.5h145q-27 -82 -101.5 -129.5t-162.5 -47.5q-127 0 -213.5 83t-86.5 205t85 207t207 85q124 0 205 -84.5t81 -213.5zM477 335q-13 53 -52.5 81.5t-100.5 28.5q-121 0 -154 -110h307z" />
    <glyph glyph-name="f" unicode="f" horiz-adv-x="280" 
d="M274 611h-13q-39 0 -54 -14.5t-16 -52.5h75v-111h-75v-433h-133v433h-48v111h48q20 195 183 195q17 0 33 -2v-126z" />
    <glyph glyph-name="g" unicode="g" horiz-adv-x="660" 
d="M611 105q0 -326 -287 -326q-102 0 -176.5 46.5t-108.5 129.5h151q29 -32 60.5 -45.5t78.5 -13.5q148 0 155 177q-39 -46 -81.5 -66t-100.5 -20q-119 0 -195.5 83t-76.5 211q0 123 77.5 204.5t195.5 81.5q120 0 181 -83v70h127v-449zM478 275q0 76 -44.5 123t-115.5 47
q-70 0 -112 -46.5t-42 -123.5q0 -76 42.5 -121t113.5 -45t114.5 45.5t43.5 120.5z" />
    <glyph glyph-name="h" unicode="h" horiz-adv-x="600" 
d="M545 0h-133v283q0 87 -25 124.5t-83 37.5q-59 0 -88 -37.5t-29 -126.5v-281h-133v739h133v-223q58 52 141 52q217 0 217 -255v-313z" />
    <glyph glyph-name="i" unicode="i" horiz-adv-x="240" 
d="M187 0h-133v554h133v-554zM188 634h-133v133h133v-133z" />
    <glyph glyph-name="j" unicode="j" horiz-adv-x="260" 
d="M205 37q0 -109 -50.5 -165.5t-137.5 -56.5v129q37 7 46 22t9 74v514h133v-517zM206 634h-133v133h133v-133z" />
    <glyph glyph-name="k" unicode="k" horiz-adv-x="580" 
d="M555 0h-179l-189 259v-259h-133v739h133v-446l177 261h159l-198 -271z" />
    <glyph glyph-name="l" unicode="l" horiz-adv-x="240" 
d="M187 0h-133v739h133v-739z" />
    <glyph glyph-name="m" unicode="m" horiz-adv-x="940" 
d="M885 0h-133v304q0 78 -26.5 109.5t-77.5 31.5q-58 0 -85 -38t-27 -134v-273h-133v304q0 78 -26.5 109.5t-81.5 31.5q-59 0 -83.5 -37.5t-24.5 -134.5v-273h-133v554h122v-52q29 35 62 50t82 15q109 0 163 -86q65 86 178 86q224 0 224 -247v-320z" />
    <glyph glyph-name="n" unicode="n" horiz-adv-x="600" 
d="M546 0h-133v271q0 104 -25.5 139t-80.5 35q-66 0 -98 -51q-22 -35 -22 -133v-261h-133v554h123v-53q69 66 156 66q118 0 173 -80q22 -32 31 -74t9 -116v-297z" />
    <glyph glyph-name="o" unicode="o" 
d="M619 273q0 -117 -87 -201.5t-208 -84.5q-122 0 -208 85t-86 205q0 119 86 204.5t207 85.5q125 0 210.5 -85t85.5 -209zM485 277q0 69 -47 118.5t-114 49.5q-65 0 -112.5 -49t-47.5 -117q0 -71 47 -120.5t114 -49.5q66 0 113 49t47 119z" />
    <glyph glyph-name="p" unicode="p" horiz-adv-x="660" 
d="M634 279q0 -126 -78.5 -209t-198.5 -83q-98 0 -170 65v-237h-133v739h122v-65q67 78 182 78q120 0 198 -81.5t78 -206.5zM500 276q0 72 -45.5 120.5t-113.5 48.5q-69 0 -115.5 -48t-46.5 -119q0 -73 46.5 -121t117.5 -48q66 0 111.5 48.5t45.5 118.5z" />
    <glyph glyph-name="q" unicode="q" horiz-adv-x="660" 
d="M611 -185h-133v238q-66 -66 -167 -66q-119 0 -200 84t-81 208q0 120 81.5 204t197.5 84q118 0 180 -84v71h122v-739zM486 275q0 73 -45 121.5t-113 48.5q-71 0 -117.5 -48t-46.5 -121q0 -72 46.5 -119.5t116.5 -47.5q68 0 113.5 47.5t45.5 118.5z" />
    <glyph glyph-name="r" unicode="r" horiz-adv-x="320" 
d="M306 439q-119 -3 -119 -131v-308h-133v554h122v-54q26 38 51.5 52.5t68.5 14.5h10v-128z" />
    <glyph glyph-name="s" unicode="s" horiz-adv-x="440" 
d="M420 176q0 -79 -57.5 -134t-140.5 -55q-85 0 -139 47.5t-64 141.5h134q10 -35 27.5 -51t46.5 -16q26 0 43 15.5t17 38.5q0 25 -15 37t-79 34q-83 28 -118.5 65.5t-35.5 98.5q0 71 53.5 120t130.5 49q73 0 125.5 -45t56.5 -121h-130q-9 44 -52 44q-22 0 -36.5 -13.5
t-14.5 -33.5q0 -22 13 -30t81 -30q86 -27 120 -63.5t34 -98.5z" />
    <glyph glyph-name="t" unicode="t" horiz-adv-x="300" 
d="M287 433h-80v-433h-133v433h-65v121h65v185h133v-185h80v-121z" />
    <glyph glyph-name="u" unicode="u" horiz-adv-x="600" 
d="M547 0h-123v53q-37 -37 -73 -51.5t-86 -14.5q-211 0 -211 270v297h133v-271q0 -103 26 -138.5t79 -35.5q69 0 101 51q21 35 21 133v261h133v-554z" />
    <glyph glyph-name="v" unicode="v" horiz-adv-x="560" 
d="M553 554l-223 -554h-106l-223 554h148l128 -367l126 367h150z" />
    <glyph glyph-name="w" unicode="w" horiz-adv-x="800" 
d="M785 554l-200 -554h-83l-105 359l-107 -359h-82l-198 554h143l99 -338l93 338h106l91 -338l101 338h142z" />
    <glyph glyph-name="x" unicode="x" horiz-adv-x="560" 
d="M553 0h-160l-116 190l-116 -190h-160l196 286l-170 268h150l100 -167l98 167h150l-169 -268z" />
    <glyph glyph-name="y" unicode="y" horiz-adv-x="580" 
d="M568 554l-320 -739h-143l104 237l-203 502h152l123 -359l134 359h153z" />
    <glyph glyph-name="z" unicode="z" horiz-adv-x="460" 
d="M442 0h-422v119l244 316h-216v119h375v-119l-244 -316h263v-119z" />
    <glyph glyph-name="braceleft" unicode="{" horiz-adv-x="340" 
d="M302 -128q-15 -1 -41 -1q-76 0 -109.5 32.5t-33.5 106.5v157q0 88 -81 98v81q81 10 81 98v157q0 74 33.5 106.5t109.5 32.5q26 0 41 -1v-80q-53 -4 -66 -21t-13 -81v-123q0 -59 -20 -87.5t-70 -41.5q50 -12 70 -41t20 -87v-123q0 -64 13 -81t66 -21v-80z" />
    <glyph glyph-name="bar" unicode="|" horiz-adv-x="600" 
d="M369 -137h-138v876h138v-876z" />
    <glyph glyph-name="braceright" unicode="}" horiz-adv-x="340" 
d="M303 265q-81 -10 -81 -98v-157q0 -74 -33.5 -106.5t-109.5 -32.5q-26 0 -41 1v80q53 4 66 21t13 81v123q0 59 20 87.5t70 41.5q-50 12 -70 41t-20 87v123q0 64 -13 81t-66 21v80q15 1 41 1q76 0 109.5 -32.5t33.5 -106.5v-157q0 -88 81 -98v-81z" />
    <glyph glyph-name="asciitilde" unicode="~" horiz-adv-x="600" 
d="M555 347q-39 -64 -71.5 -90.5t-73.5 -26.5q-33 0 -91 24l-54 22q-47 19 -64 19q-26 0 -47 -22q-11 -11 -40 -59l-63 75q44 71 72.5 97t75.5 26q39 0 77 -16l67 -27q54 -22 71 -22q36 0 77 74z" />
    <glyph glyph-name="uni00A0" unicode="&#xa0;" horiz-adv-x="280" 
 />
    <glyph glyph-name="exclamdown" unicode="&#xa1;" horiz-adv-x="280" 
d="M208 -185h-133v551h133v-551zM208 426h-133v128h133v-128z" />
    <glyph glyph-name="cent" unicode="&#xa2;" horiz-adv-x="560" 
d="M511 310q-52 -131 -168 -162v-109h-125v109q-80 18 -129.5 82.5t-49.5 150.5q0 81 47.5 145t131.5 85v104h125v-104q64 -16 109 -61t59 -107h-142q-33 46 -93 46q-44 0 -74 -31.5t-30 -78.5t30.5 -78t77.5 -31q49 0 85 40h146z" />
    <glyph glyph-name="sterling" unicode="&#xa3;" horiz-adv-x="560" 
d="M563 222q0 -103 -75 -168q-35 -30 -76.5 -42t-110.5 -12h-260v125h139q20 34 20 73q0 58 -58 112h-142v125h58q-17 38 -17 81q0 99 69.5 167.5t169.5 68.5q95 0 160.5 -58.5t73.5 -152.5h-135q-11 43 -36.5 66t-61.5 23q-45 0 -76 -34.5t-31 -84.5q0 -43 27 -76h207v-125
h-107q32 -63 32 -110q0 -38 -13 -75q53 0 81.5 26t28.5 69q0 21 -10 54h132q11 -29 11 -52z" />
    <glyph glyph-name="currency" unicode="&#xa4;" horiz-adv-x="560" 
d="M534 572l-42 -43q37 -64 37 -130q0 -68 -38 -128l42 -43l-77 -80l-44 42q-62 -37 -131 -37q-68 0 -131 37l-44 -42l-79 81l42 43q-22 41 -29 66t-7 62t7 62.5t29 66.5l-42 45l80 80l45 -44q59 36 128 36q68 0 132 -36l45 43zM407 399q0 52 -36.5 89.5t-86.5 37.5
q-55 0 -93 -36.5t-38 -89.5q0 -52 38 -89.5t90 -37.5q53 0 89.5 36.5t36.5 89.5z" />
    <glyph glyph-name="yen" unicode="&#xa5;" horiz-adv-x="560" 
d="M589 739l-143 -271h92v-88h-140l-57 -105h197v-88h-197v-187h-133v187h-196v88h196l-56 105h-140v88h94l-141 271h149l160 -341l161 341h154z" />
    <glyph glyph-name="brokenbar" unicode="&#xa6;" horiz-adv-x="600" 
d="M369 389h-138v350h138v-350zM369 -137h-138v350h138v-350z" />
    <glyph glyph-name="section" unicode="&#xa7;" horiz-adv-x="560" 
d="M529 292q0 -86 -75 -142q50 -51 50 -119q0 -83 -60.5 -135.5t-154.5 -52.5q-97 0 -159 55.5t-70 156.5h134q0 -90 96 -90q37 0 62 18.5t25 46.5q0 21 -14.5 35.5t-58.5 37.5l-163 84q-101 52 -101 160q0 88 78 146q-28 43 -28 93q0 73 56 119.5t145 46.5t141.5 -48
t64.5 -141h-126q-13 67 -86 67q-31 0 -49.5 -13t-18.5 -35q0 -41 61 -70l164 -81q40 -20 63.5 -57.5t23.5 -81.5zM405 278q0 18 -12 30.5t-48 30.5l-149 74q-39 -31 -39 -59q0 -32 60 -63l151 -76q37 26 37 63z" />
    <glyph glyph-name="dieresis" unicode="&#xa8;" horiz-adv-x="500" 
d="M207 634h-133v133h133v-133zM417 634h-133v133h133v-133z" />
    <glyph glyph-name="copyright" unicode="&#xa9;" horiz-adv-x="740" 
d="M720 337q0 -145 -102.5 -247.5t-247.5 -102.5t-247.5 102.5t-102.5 247.5t102.5 247.5t247.5 102.5t247.5 -102.5t102.5 -247.5zM660 337q0 120 -85 205t-205 85t-205 -85t-85 -205t85 -205t205 -85t205 85t85 205zM587 407h-105q-38 47 -105 47q-55 0 -91.5 -33
t-36.5 -83q0 -49 38 -83.5t91 -34.5q54 0 100 45h108q-22 -61 -78.5 -97.5t-127.5 -36.5q-95 0 -161.5 61t-66.5 147q0 84 65.5 144t157.5 60q72 0 129 -36t83 -100z" />
    <glyph glyph-name="ordfeminine" unicode="&#xaa;" horiz-adv-x="360" 
d="M338 441h-66v41q-39 -51 -102 -51q-60 0 -101 46.5t-41 114.5q0 66 43 112t104 46q58 0 97 -50v39h66v-298zM266 591q0 36 -23.5 60.5t-57.5 24.5t-57.5 -25.5t-23.5 -61.5q0 -35 23.5 -59.5t57.5 -24.5t57.5 25t23.5 61zM342 310h-311v70h311v-70z" />
    <glyph glyph-name="guillemotleft" unicode="&#xab;" horiz-adv-x="460" 
d="M388 108l-139 131v100l139 130v-123l-67 -57l67 -58v-123zM175 108l-139 131v100l139 130v-123l-67 -57l67 -58v-123z" />
    <glyph glyph-name="logicalnot" unicode="&#xac;" horiz-adv-x="600" 
d="M546 158h-138v115h-354v138h492v-253z" />
    <glyph glyph-name="uni00AD" unicode="&#xad;" horiz-adv-x="420" 
d="M351 229h-277v118h277v-118z" />
    <glyph glyph-name="registered" unicode="&#xae;" horiz-adv-x="740" 
d="M720 337q0 -145 -102.5 -247.5t-247.5 -102.5t-247.5 102.5t-102.5 247.5t102.5 247.5t247.5 102.5t247.5 -102.5t102.5 -247.5zM660 337q0 120 -85 205t-205 85t-205 -85t-85 -205t85 -205t205 -85t205 85t85 205zM526 138h-121l-95 126v-126h-96v399h129q81 0 119 -30
q48 -37 48 -102q0 -94 -100 -123zM423 403q0 28 -18.5 42t-69.5 14h-34v-113h37q45 0 65 13.5t20 43.5z" />
    <glyph glyph-name="macron" unicode="&#xaf;" horiz-adv-x="420" 
d="M351 650h-277v100h277v-100z" />
    <glyph glyph-name="degree" unicode="&#xb0;" horiz-adv-x="400" 
d="M350 533q0 -64 -43.5 -108.5t-106.5 -44.5t-106.5 44.5t-43.5 109.5q0 64 44.5 108t109.5 44q62 0 104 -44.5t42 -108.5zM293 533q0 40 -26.5 68t-64.5 28q-40 0 -68 -28t-28 -68t28 -68t66 -28q39 0 66 28t27 68z" />
    <glyph glyph-name="plusminus" unicode="&#xb1;" horiz-adv-x="600" 
d="M546 319h-177v-57h-138v57h-177v138h177v177h138v-177h177v-138zM546 0h-492v138h492v-138z" />
    <glyph glyph-name="two.superior" unicode="&#xb2;" horiz-adv-x="336" 
d="M326 601q0 -79 -89 -150l-94 -75h181v-80h-311v74l170 148q54 46 55 85q0 28 -19.5 46.5t-48.5 18.5q-34 0 -53 -22.5t-20 -63.5h-87q0 79 43.5 122t115.5 43q67 0 112 -42t45 -104z" />
    <glyph glyph-name="three.superior" unicode="&#xb3;" horiz-adv-x="336" 
d="M331 439q0 -65 -45.5 -108t-115.5 -43t-116 41t-50 106h88q5 -32 25.5 -50t52.5 -18t53 19.5t21 49.5q0 32 -25.5 51t-69.5 19h-21v82q46 1 64.5 10.5t18.5 31.5q0 17 -12 27.5t-31 10.5q-35 0 -42 -40h-89q6 59 41.5 88.5t88.5 29.5q57 0 94.5 -34.5t37.5 -86.5
q0 -48 -34 -74q66 -31 66 -112z" />
    <glyph glyph-name="acute" unicode="&#xb4;" horiz-adv-x="420" 
d="M395 724l-227 -120l-51 78l224 134z" />
    <glyph glyph-name="uni00B5" unicode="&#xb5;" horiz-adv-x="576" 
d="M523 0h-122v59q-40 -77 -131 -77q-39 0 -83 19v-186h-133v739h133v-272q0 -35 3.5 -61t13.5 -53t31.5 -41.5t53.5 -14.5t53.5 14.5t31 41.5t13 53t3.5 61v272h133v-554z" />
    <glyph glyph-name="paragraph" unicode="&#xb6;" horiz-adv-x="600" 
d="M527 -128h-101v760h-84v-760h-101v458q-91 1 -147.5 57.5t-56.5 145.5q0 102 65 154t207 52h218v-867z" />
    <glyph glyph-name="periodcentered" unicode="&#xb7;" horiz-adv-x="280" 
d="M204 250q0 -26 -19 -45t-45 -19t-45 19t-19 45t19 45t45 19t45 -19t19 -45z" />
    <glyph glyph-name="cedilla" unicode="&#xb8;" horiz-adv-x="340" 
d="M270 -152q0 -44 -26.5 -71t-69.5 -27q-38 0 -66 23.5t-34 60.5h61q13 -29 38 -29q16 0 27.5 13t11.5 32q0 18 -11.5 31t-27.5 13q-19 0 -38 -27l-52 26l46 112h52l-31 -63q18 7 29 7q37 0 64 -30t27 -71z" />
    <glyph glyph-name="one.superior" unicode="&#xb9;" horiz-adv-x="336" 
d="M241 296h-88v363h-59v80h147v-443z" />
    <glyph glyph-name="ordmasculine" unicode="&#xba;" horiz-adv-x="360" 
d="M338 596q0 -64 -45 -109t-109 -45q-63 0 -108 46t-45 111q0 62 45.5 106.5t108.5 44.5q64 0 108.5 -45t44.5 -109zM265 597q0 34 -24 58.5t-56 24.5q-33 0 -57 -24t-24 -57q0 -36 22.5 -59.5t57.5 -23.5q34 0 57.5 23t23.5 58zM338 311h-307v70h307v-70z" />
    <glyph glyph-name="guillemotright" unicode="&#xbb;" horiz-adv-x="460" 
d="M212 239l-139 -131v123l67 58l-67 57v123l139 -130v-100zM425 239l-139 -131v123l67 58l-67 57v123l139 -130v-100z" />
    <glyph glyph-name="onequarter" unicode="&#xbc;" horiz-adv-x="840" 
d="M621 739l-306 -739h-95l306 739h95zM836 66h-48v-66h-88v66h-194v67l208 310h74v-301h48v-76zM700 142v154l-102 -154h102zM241 296h-88v363h-59v80h147v-443z" />
    <glyph glyph-name="onehalf" unicode="&#xbd;" horiz-adv-x="840" 
d="M600 739l-306 -739h-95l306 739h95zM241 296h-88v363h-59v80h147v-443zM830 305q0 -79 -89 -150l-94 -75h181v-80h-311v74l170 148q54 46 55 85q0 28 -19.5 46.5t-48.5 18.5q-34 0 -53 -22.5t-20 -63.5h-87q0 79 43.5 122t115.5 43q67 0 112 -42t45 -104z" />
    <glyph glyph-name="threequarters" unicode="&#xbe;" horiz-adv-x="840" 
d="M651 739l-306 -739h-95l306 739h95zM836 66h-48v-66h-88v66h-194v67l208 310h74v-301h48v-76zM700 142v154l-102 -154h102zM331 439q0 -65 -45.5 -108t-115.5 -43t-116 41t-50 106h88q5 -32 25.5 -50t52.5 -18t53 19.5t21 49.5q0 32 -25.5 51t-69.5 19h-21v82
q46 1 64.5 10.5t18.5 31.5q0 17 -12 27.5t-31 10.5q-35 0 -42 -40h-89q6 59 41.5 88.5t88.5 29.5q57 0 94.5 -34.5t37.5 -86.5q0 -48 -34 -74q66 -31 66 -112z" />
    <glyph glyph-name="questiondown" unicode="&#xbf;" horiz-adv-x="560" 
d="M528 34q-9 -112 -72 -172t-156 -60q-96 0 -160.5 65.5t-64.5 163.5q0 50 22.5 89.5t79.5 89.5q41 36 52.5 64t12.5 93h133q0 -94 -23.5 -144t-98.5 -111q-45 -37 -45 -85q0 -40 27 -66.5t68 -26.5q79 0 92 100h133zM375 426h-133v128h133v-128z" />
    <glyph glyph-name="Agrave" unicode="&#xc0;" horiz-adv-x="740" 
d="M733 0h-151l-79 191h-263l-82 -191h-151l308 739h108zM448 322l-79 224l-79 -224h158zM462 857l-51 -78l-227 120l54 92z" />
    <glyph glyph-name="Aacute" unicode="&#xc1;" horiz-adv-x="740" 
d="M733 0h-151l-79 191h-263l-82 -191h-151l308 739h108zM448 322l-79 224l-79 -224h158zM554 899l-227 -120l-51 78l224 134z" />
    <glyph glyph-name="Acircumflex" unicode="&#xc2;" horiz-adv-x="740" 
d="M733 0h-151l-79 191h-263l-82 -191h-151l308 739h108zM448 322l-79 224l-79 -224h158zM569 806h-145l-53 64l-54 -64h-147l147 138h107z" />
    <glyph glyph-name="Atilde" unicode="&#xc3;" horiz-adv-x="740" 
d="M733 0h-151l-79 191h-263l-82 -191h-151l308 739h108zM448 322l-79 224l-79 -224h158zM534 862q-45 -55 -94 -55q-13 0 -58.5 12.5t-54.5 12.5q-18 0 -29.5 -4t-40.5 -21l-54 80q26 26 49 36.5t54 10.5q12 0 52.5 -12.5t54.5 -12.5q37 0 67 34z" />
    <glyph glyph-name="Adieresis" unicode="&#xc4;" horiz-adv-x="740" 
d="M733 0h-151l-79 191h-263l-82 -191h-151l308 739h108zM448 322l-79 224l-79 -224h158zM326 809h-133v133h133v-133zM536 809h-133v133h133v-133z" />
    <glyph glyph-name="Aring" unicode="&#xc5;" horiz-adv-x="740" 
d="M733 0h-151l-79 191h-263l-82 -191h-151l308 739h108zM448 322l-79 224l-79 -224h158zM482 888q0 -47 -33 -80t-80 -33t-80 33t-33 80t33 80t81 33q46 0 79 -33t33 -80zM409 888q0 16 -11.5 28t-28.5 12t-28.5 -12t-11.5 -28t11.5 -28t28.5 -12t28.5 12t11.5 28z" />
    <glyph glyph-name="AE" unicode="&#xc6;" horiz-adv-x="900" 
d="M843 0h-355v191h-194l-112 -191h-165l487 739h339v-131h-218v-174h207v-131h-207v-172h218v-131zM488 322v191l-115 -191h115z" />
    <glyph glyph-name="Ccedilla" unicode="&#xc7;" horiz-adv-x="780" 
d="M760 206q-42 -98 -130 -156.5t-198 -62.5l-22 -45q18 7 29 7q37 0 64 -30t27 -71q0 -44 -26.5 -71t-69.5 -27q-38 0 -66 23.5t-34 60.5h61q13 -29 38 -29q16 0 27.5 13t11.5 32q0 18 -11.5 31t-27.5 13q-19 0 -38 -27l-52 26l39 96q-149 14 -250.5 123.5t-101.5 259.5
q0 157 111.5 268.5t268.5 111.5q115 0 208.5 -59.5t141.5 -165.5h-153q-38 49 -84 71t-110 22q-105 0 -175 -72t-70 -177q0 -104 73 -178t175 -74q54 0 96 20t87 67h161z" />
    <glyph glyph-name="Egrave" unicode="&#xc8;" horiz-adv-x="520" 
d="M465 0h-397v739h397v-131h-260v-174h249v-131h-249v-172h260v-131zM360 857l-51 -78l-227 120l54 92z" />
    <glyph glyph-name="Eacute" unicode="&#xc9;" horiz-adv-x="520" 
d="M465 0h-397v739h397v-131h-260v-174h249v-131h-249v-172h260v-131zM452 899l-227 -120l-51 78l224 134z" />
    <glyph glyph-name="Ecircumflex" unicode="&#xca;" horiz-adv-x="520" 
d="M465 0h-397v739h397v-131h-260v-174h249v-131h-249v-172h260v-131zM467 806h-145l-53 64l-54 -64h-147l147 138h107z" />
    <glyph glyph-name="Edieresis" unicode="&#xcb;" horiz-adv-x="520" 
d="M465 0h-397v739h397v-131h-260v-174h249v-131h-249v-172h260v-131zM224 809h-133v133h133v-133zM434 809h-133v133h133v-133z" />
    <glyph glyph-name="Igrave" unicode="&#xcc;" horiz-adv-x="280" 
d="M205 0h-137v739h137v-739zM256 857l-51 -78l-227 120l54 92z" />
    <glyph glyph-name="Iacute" unicode="&#xcd;" horiz-adv-x="280" 
d="M205 0h-137v739h137v-739zM295 899l-227 -120l-51 78l224 134z" />
    <glyph glyph-name="Icircumflex" unicode="&#xce;" horiz-adv-x="280" 
d="M205 0h-137v739h137v-739zM337 806h-145l-53 64l-54 -64h-147l147 138h107z" />
    <glyph glyph-name="Idieresis" unicode="&#xcf;" horiz-adv-x="280" 
d="M205 0h-137v739h137v-739zM94 809h-133v133h133v-133zM304 809h-133v133h133v-133z" />
    <glyph glyph-name="Eth" unicode="&#xd0;" horiz-adv-x="742" 
d="M702 367q0 -112 -48 -198t-133 -128q-82 -41 -239 -41h-172v315h-96v107h96v317h169q174 0 262 -53q77 -46 119 -129.5t42 -189.5zM564 368q0 71 -30.5 127t-82.5 83q-59 30 -177 30h-27v-186h154v-107h-154v-184h30q121 0 180 33q50 27 78.5 82t28.5 122z" />
    <glyph glyph-name="Ntilde" unicode="&#xd1;" horiz-adv-x="740" 
d="M667 0h-153l-309 537v-537h-137v739h156l306 -538v538h137v-739zM533 862q-45 -55 -94 -55q-13 0 -58.5 12.5t-54.5 12.5q-18 0 -29.5 -4t-40.5 -21l-54 80q26 26 49 36.5t54 10.5q12 0 52.5 -12.5t54.5 -12.5q37 0 67 34z" />
    <glyph glyph-name="Ograve" unicode="&#xd2;" horiz-adv-x="840" 
d="M800 370q0 -162 -110 -272.5t-271 -110.5q-163 0 -276 111t-113 271q0 162 112.5 272.5t277.5 110.5q158 0 269 -112t111 -270zM662 368q0 106 -70.5 179t-173.5 73q-107 0 -178.5 -72t-71.5 -179q0 -105 72.5 -177.5t177.5 -72.5t174.5 71t69.5 178zM513 857l-51 -78
l-227 120l54 92z" />
    <glyph glyph-name="Oacute" unicode="&#xd3;" horiz-adv-x="840" 
d="M800 370q0 -162 -110 -272.5t-271 -110.5q-163 0 -276 111t-113 271q0 162 112.5 272.5t277.5 110.5q158 0 269 -112t111 -270zM662 368q0 106 -70.5 179t-173.5 73q-107 0 -178.5 -72t-71.5 -179q0 -105 72.5 -177.5t177.5 -72.5t174.5 71t69.5 178zM605 899l-227 -120
l-51 78l224 134z" />
    <glyph glyph-name="Ocircumflex" unicode="&#xd4;" horiz-adv-x="840" 
d="M800 370q0 -162 -110 -272.5t-271 -110.5q-163 0 -276 111t-113 271q0 162 112.5 272.5t277.5 110.5q158 0 269 -112t111 -270zM662 368q0 106 -70.5 179t-173.5 73q-107 0 -178.5 -72t-71.5 -179q0 -105 72.5 -177.5t177.5 -72.5t174.5 71t69.5 178zM620 806h-145
l-53 64l-54 -64h-147l147 138h107z" />
    <glyph glyph-name="Otilde" unicode="&#xd5;" horiz-adv-x="840" 
d="M800 370q0 -162 -110 -272.5t-271 -110.5q-163 0 -276 111t-113 271q0 162 112.5 272.5t277.5 110.5q158 0 269 -112t111 -270zM662 368q0 106 -70.5 179t-173.5 73q-107 0 -178.5 -72t-71.5 -179q0 -105 72.5 -177.5t177.5 -72.5t174.5 71t69.5 178zM585 862
q-45 -55 -94 -55q-13 0 -58.5 12.5t-54.5 12.5q-18 0 -29.5 -4t-40.5 -21l-54 80q26 26 49 36.5t54 10.5q12 0 52.5 -12.5t54.5 -12.5q37 0 67 34z" />
    <glyph glyph-name="Odieresis" unicode="&#xd6;" horiz-adv-x="840" 
d="M800 370q0 -162 -110 -272.5t-271 -110.5q-163 0 -276 111t-113 271q0 162 112.5 272.5t277.5 110.5q158 0 269 -112t111 -270zM662 368q0 106 -70.5 179t-173.5 73q-107 0 -178.5 -72t-71.5 -179q0 -105 72.5 -177.5t177.5 -72.5t174.5 71t69.5 178zM377 809h-133v133
h133v-133zM587 809h-133v133h133v-133z" />
    <glyph glyph-name="multiply" unicode="&#xd7;" horiz-adv-x="600" 
d="M523 125l-98 -98l-125 125l-125 -125l-98 98l125 125l-125 125l98 98l125 -125l125 125l98 -98l-125 -125z" />
    <glyph glyph-name="Oslash" unicode="&#xd8;" horiz-adv-x="840" 
d="M803 370q0 -162 -110.5 -272.5t-271.5 -110.5q-88 0 -168 36l-60 -88l-96 65l59 87q-60 54 -93 128.5t-33 154.5q0 159 112.5 270.5t273.5 111.5q85 0 165 -35l62 92l95 -66l-61 -90q126 -115 126 -283zM665 368q0 97 -64 172l-272 -405q45 -16 91 -16q105 0 175 71
t70 178zM505 605q-43 15 -89 15q-104 0 -176 -72.5t-72 -177.5q0 -95 65 -169z" />
    <glyph glyph-name="Ugrave" unicode="&#xd9;" 
d="M567 271q0 -138 -68.5 -211t-181.5 -73q-112 0 -180.5 73.5t-68.5 210.5v468h137v-468q0 -82 28.5 -117t84.5 -35q55 0 83.5 34.5t28.5 117.5v468h137v-468zM411 857l-51 -78l-227 120l54 92z" />
    <glyph glyph-name="Uacute" unicode="&#xda;" 
d="M567 271q0 -138 -68.5 -211t-181.5 -73q-112 0 -180.5 73.5t-68.5 210.5v468h137v-468q0 -82 28.5 -117t84.5 -35q55 0 83.5 34.5t28.5 117.5v468h137v-468zM503 899l-227 -120l-51 78l224 134z" />
    <glyph glyph-name="Ucircumflex" unicode="&#xdb;" 
d="M567 271q0 -138 -68.5 -211t-181.5 -73q-112 0 -180.5 73.5t-68.5 210.5v468h137v-468q0 -82 28.5 -117t84.5 -35q55 0 83.5 34.5t28.5 117.5v468h137v-468zM518 806h-145l-53 64l-54 -64h-147l147 138h107z" />
    <glyph glyph-name="Udieresis" unicode="&#xdc;" 
d="M567 271q0 -138 -68.5 -211t-181.5 -73q-112 0 -180.5 73.5t-68.5 210.5v468h137v-468q0 -82 28.5 -117t84.5 -35q55 0 83.5 34.5t28.5 117.5v468h137v-468zM275 809h-133v133h133v-133zM485 809h-133v133h133v-133z" />
    <glyph glyph-name="Yacute" unicode="&#xdd;" horiz-adv-x="620" 
d="M626 739l-243 -466v-273h-137v273l-243 466h148l164 -340l163 340h148zM500 899l-227 -120l-51 78l224 134z" />
    <glyph glyph-name="Thorn" unicode="&#xde;" horiz-adv-x="560" 
d="M540 380q0 -64 -26 -117t-71 -81q-31 -19 -73.5 -26t-120.5 -7h-44v-149h-137v739h137v-131h46q132 0 189 -34q100 -61 100 -194zM402 377q0 58 -34.5 79t-116.5 21h-46v-197h40q89 0 123 23.5t34 73.5z" />
    <glyph glyph-name="germandbls" unicode="&#xdf;" horiz-adv-x="600" 
d="M584 216q0 -101 -65.5 -165t-168.5 -64q-121 0 -177 92v-79h-122v487q0 124 59 194.5t162 70.5q92 0 155 -59t63 -147q0 -96 -75 -138q84 -20 126.5 -70.5t42.5 -121.5zM450 205q0 57 -40 83.5t-144 26.5h-11v118h11q39 0 64.5 29.5t25.5 73.5q0 43 -23.5 68.5
t-61.5 25.5q-87 0 -87 -127v-314h82q7 -34 33.5 -57t59.5 -23q39 0 65 27.5t26 68.5z" />
    <glyph glyph-name="agrave" unicode="&#xe0;" horiz-adv-x="660" 
d="M615 0h-122v72q-40 -45 -83 -65t-101 -20q-121 0 -200 81.5t-79 206.5q0 127 79.5 209.5t202.5 82.5q115 0 181 -87v74h122v-554zM489 273q0 76 -46 124t-117 48t-116.5 -48.5t-45.5 -124.5q0 -73 45.5 -118t118.5 -45q74 0 117.5 46.5t43.5 117.5zM423 682l-51 -78
l-227 120l54 92z" />
    <glyph glyph-name="aacute" unicode="&#xe1;" horiz-adv-x="660" 
d="M615 0h-122v72q-40 -45 -83 -65t-101 -20q-121 0 -200 81.5t-79 206.5q0 127 79.5 209.5t202.5 82.5q115 0 181 -87v74h122v-554zM489 273q0 76 -46 124t-117 48t-116.5 -48.5t-45.5 -124.5q0 -73 45.5 -118t118.5 -45q74 0 117.5 46.5t43.5 117.5zM515 724l-227 -120
l-51 78l224 134z" />
    <glyph glyph-name="acircumflex" unicode="&#xe2;" horiz-adv-x="660" 
d="M615 0h-122v72q-40 -45 -83 -65t-101 -20q-121 0 -200 81.5t-79 206.5q0 127 79.5 209.5t202.5 82.5q115 0 181 -87v74h122v-554zM489 273q0 76 -46 124t-117 48t-116.5 -48.5t-45.5 -124.5q0 -73 45.5 -118t118.5 -45q74 0 117.5 46.5t43.5 117.5zM530 631h-145l-53 64
l-54 -64h-147l147 138h107z" />
    <glyph glyph-name="atilde" unicode="&#xe3;" horiz-adv-x="660" 
d="M615 0h-122v72q-40 -45 -83 -65t-101 -20q-121 0 -200 81.5t-79 206.5q0 127 79.5 209.5t202.5 82.5q115 0 181 -87v74h122v-554zM489 273q0 76 -46 124t-117 48t-116.5 -48.5t-45.5 -124.5q0 -73 45.5 -118t118.5 -45q74 0 117.5 46.5t43.5 117.5zM495 687
q-45 -55 -94 -55q-13 0 -58.5 12.5t-54.5 12.5q-18 0 -29.5 -4t-40.5 -21l-54 80q26 26 49 36.5t54 10.5q12 0 52.5 -12.5t54.5 -12.5q37 0 67 34z" />
    <glyph glyph-name="adieresis" unicode="&#xe4;" horiz-adv-x="660" 
d="M615 0h-122v72q-40 -45 -83 -65t-101 -20q-121 0 -200 81.5t-79 206.5q0 127 79.5 209.5t202.5 82.5q115 0 181 -87v74h122v-554zM489 273q0 76 -46 124t-117 48t-116.5 -48.5t-45.5 -124.5q0 -73 45.5 -118t118.5 -45q74 0 117.5 46.5t43.5 117.5zM287 634h-133v133h133
v-133zM497 634h-133v133h133v-133z" />
    <glyph glyph-name="aring" unicode="&#xe5;" horiz-adv-x="660" 
d="M615 0h-122v72q-40 -45 -83 -65t-101 -20q-121 0 -200 81.5t-79 206.5q0 127 79.5 209.5t202.5 82.5q115 0 181 -87v74h122v-554zM489 273q0 76 -46 124t-117 48t-116.5 -48.5t-45.5 -124.5q0 -73 45.5 -118t118.5 -45q74 0 117.5 46.5t43.5 117.5zM443 710
q0 -47 -33 -80t-80 -33t-80 33t-33 80t33 80t81 33q46 0 79 -33t33 -80zM370 710q0 16 -12 28t-28 12t-28 -12t-12 -28t12 -28t28 -12t28 12t12 28z" />
    <glyph glyph-name="ae" unicode="&#xe6;" horiz-adv-x="1080" 
d="M1051 288q0 -30 -9 -69h-428q17 -52 58.5 -81t97.5 -29q71 0 117 55h145q-25 -76 -98 -126.5t-158 -50.5q-106 0 -169 73v-60h-122v60q-34 -40 -71 -56.5t-94 -16.5q-125 0 -207.5 82t-82.5 206t83 208t205 84q102 0 167 -68v55h122v-55q67 68 167 68q116 0 196.5 -81
t80.5 -198zM481 276q0 72 -45.5 120.5t-112.5 48.5t-113 -48t-46 -117q0 -74 45.5 -122.5t115.5 -48.5q67 0 111.5 48t44.5 119zM911 337q-29 108 -150 108q-116 0 -154 -108h304z" />
    <glyph glyph-name="ccedilla" unicode="&#xe7;" 
d="M601 182q-33 -89 -100.5 -139.5t-158.5 -55.5l-22 -45q18 7 29 7q37 0 64 -30t27 -71q0 -44 -26.5 -71t-69.5 -27q-38 0 -66 23.5t-34 60.5h61q13 -29 38 -29q16 0 27.5 13t11.5 32q0 18 -11.5 31t-27.5 13q-19 0 -38 -27l-52 26l39 96q-112 12 -187 94t-75 194
q0 122 84.5 206t207.5 84q96 0 171.5 -52t107.5 -146h-150q-40 76 -129 76q-69 0 -113.5 -47t-44.5 -120t46 -121t115 -48q79 0 126 73h150z" />
    <glyph glyph-name="egrave" unicode="&#xe8;" 
d="M608 269q0 -27 -5 -51h-429q12 -50 53 -79.5t100 -29.5q41 0 68.5 12.5t53.5 42.5h145q-27 -82 -101.5 -129.5t-162.5 -47.5q-127 0 -213.5 83t-86.5 205t85 207t207 85q124 0 205 -84.5t81 -213.5zM477 335q-13 53 -52.5 81.5t-100.5 28.5q-121 0 -154 -110h307z
M415 682l-51 -78l-227 120l54 92z" />
    <glyph glyph-name="eacute" unicode="&#xe9;" 
d="M608 269q0 -27 -5 -51h-429q12 -50 53 -79.5t100 -29.5q41 0 68.5 12.5t53.5 42.5h145q-27 -82 -101.5 -129.5t-162.5 -47.5q-127 0 -213.5 83t-86.5 205t85 207t207 85q124 0 205 -84.5t81 -213.5zM477 335q-13 53 -52.5 81.5t-100.5 28.5q-121 0 -154 -110h307z
M507 724l-227 -120l-51 78l224 134z" />
    <glyph glyph-name="ecircumflex" unicode="&#xea;" 
d="M608 269q0 -27 -5 -51h-429q12 -50 53 -79.5t100 -29.5q41 0 68.5 12.5t53.5 42.5h145q-27 -82 -101.5 -129.5t-162.5 -47.5q-127 0 -213.5 83t-86.5 205t85 207t207 85q124 0 205 -84.5t81 -213.5zM477 335q-13 53 -52.5 81.5t-100.5 28.5q-121 0 -154 -110h307z
M522 631h-145l-53 64l-54 -64h-147l147 138h107z" />
    <glyph glyph-name="edieresis" unicode="&#xeb;" 
d="M608 269q0 -27 -5 -51h-429q12 -50 53 -79.5t100 -29.5q41 0 68.5 12.5t53.5 42.5h145q-27 -82 -101.5 -129.5t-162.5 -47.5q-127 0 -213.5 83t-86.5 205t85 207t207 85q124 0 205 -84.5t81 -213.5zM477 335q-13 53 -52.5 81.5t-100.5 28.5q-121 0 -154 -110h307z
M279 634h-133v133h133v-133zM489 634h-133v133h133v-133z" />
    <glyph glyph-name="igrave" unicode="&#xec;" horiz-adv-x="240" 
d="M187 0h-133v554h133v-554zM238 682l-51 -78l-227 120l54 92z" />
    <glyph glyph-name="iacute" unicode="&#xed;" horiz-adv-x="240" 
d="M187 0h-133v554h133v-554zM281 724l-227 -120l-51 78l224 134z" />
    <glyph glyph-name="icircumflex" unicode="&#xee;" horiz-adv-x="240" 
d="M187 0h-133v554h133v-554zM321 631h-145l-53 64l-54 -64h-147l147 138h107z" />
    <glyph glyph-name="idieresis" unicode="&#xef;" horiz-adv-x="240" 
d="M187 0h-133v554h133v-554zM78 634h-133v133h133v-133zM288 634h-133v133h133v-133z" />
    <glyph glyph-name="eth" unicode="&#xf0;" 
d="M619 284q0 -125 -85 -211t-209 -86q-122 0 -208.5 85.5t-86.5 205.5q0 112 78.5 195t189.5 83q26 0 67 -9l-28 28q-28 28 -49 46l-87 -40l-40 46l78 37l-70 57l103 35q4 -2 7.5 -5t5.5 -4.5t3 -1.5l30 -23q1 0 19 -13l87 40l41 -49l-78 -35q127 -109 179.5 -196.5
t52.5 -184.5zM485 277q0 69 -47 118.5t-114 49.5q-65 0 -112.5 -49t-47.5 -117q0 -71 47 -120.5t114 -49.5q66 0 113 49t47 119z" />
    <glyph glyph-name="ntilde" unicode="&#xf1;" horiz-adv-x="600" 
d="M546 0h-133v271q0 104 -25.5 139t-80.5 35q-66 0 -98 -51q-22 -35 -22 -133v-261h-133v554h123v-53q69 66 156 66q118 0 173 -80q22 -32 31 -74t9 -116v-297zM465 687q-45 -55 -94 -55q-13 0 -58.5 12.5t-54.5 12.5q-18 0 -29.5 -4t-40.5 -21l-54 80q26 26 49 36.5
t54 10.5q12 0 52.5 -12.5t54.5 -12.5q37 0 67 34z" />
    <glyph glyph-name="ograve" unicode="&#xf2;" 
d="M619 273q0 -117 -87 -201.5t-208 -84.5q-122 0 -208 85t-86 205q0 119 86 204.5t207 85.5q125 0 210.5 -85t85.5 -209zM485 277q0 69 -47 118.5t-114 49.5q-65 0 -112.5 -49t-47.5 -117q0 -71 47 -120.5t114 -49.5q66 0 113 49t47 119zM416 682l-51 -78l-227 120l54 92z
" />
    <glyph glyph-name="oacute" unicode="&#xf3;" 
d="M619 273q0 -117 -87 -201.5t-208 -84.5q-122 0 -208 85t-86 205q0 119 86 204.5t207 85.5q125 0 210.5 -85t85.5 -209zM485 277q0 69 -47 118.5t-114 49.5q-65 0 -112.5 -49t-47.5 -117q0 -71 47 -120.5t114 -49.5q66 0 113 49t47 119zM508 724l-227 -120l-51 78l224 134
z" />
    <glyph glyph-name="ocircumflex" unicode="&#xf4;" 
d="M619 273q0 -117 -87 -201.5t-208 -84.5q-122 0 -208 85t-86 205q0 119 86 204.5t207 85.5q125 0 210.5 -85t85.5 -209zM485 277q0 69 -47 118.5t-114 49.5q-65 0 -112.5 -49t-47.5 -117q0 -71 47 -120.5t114 -49.5q66 0 113 49t47 119zM523 631h-145l-53 64l-54 -64h-147
l147 138h107z" />
    <glyph glyph-name="otilde" unicode="&#xf5;" 
d="M619 273q0 -117 -87 -201.5t-208 -84.5q-122 0 -208 85t-86 205q0 119 86 204.5t207 85.5q125 0 210.5 -85t85.5 -209zM485 277q0 69 -47 118.5t-114 49.5q-65 0 -112.5 -49t-47.5 -117q0 -71 47 -120.5t114 -49.5q66 0 113 49t47 119zM488 687q-45 -55 -94 -55
q-13 0 -58.5 12.5t-54.5 12.5q-18 0 -29.5 -4t-40.5 -21l-54 80q26 26 49 36.5t54 10.5q12 0 52.5 -12.5t54.5 -12.5q37 0 67 34z" />
    <glyph glyph-name="odieresis" unicode="&#xf6;" 
d="M619 273q0 -117 -87 -201.5t-208 -84.5q-122 0 -208 85t-86 205q0 119 86 204.5t207 85.5q125 0 210.5 -85t85.5 -209zM485 277q0 69 -47 118.5t-114 49.5q-65 0 -112.5 -49t-47.5 -117q0 -71 47 -120.5t114 -49.5q66 0 113 49t47 119zM280 634h-133v133h133v-133z
M490 634h-133v133h133v-133z" />
    <glyph glyph-name="divide" unicode="&#xf7;" horiz-adv-x="600" 
d="M546 181h-492v138h492v-138zM364 435q0 -27 -19 -45.5t-45 -18.5t-45 18.5t-19 45.5q0 26 19 45t45 19t45 -19t19 -45zM364 65q0 -26 -19 -45t-45 -19t-45 19t-19 45q0 27 19 45.5t45 18.5t45 -18.5t19 -45.5z" />
    <glyph glyph-name="oslash" unicode="&#xf8;" horiz-adv-x="660" 
d="M620 277q0 -120 -86 -205t-208 -85q-66 0 -126 28l-56 -82l-85 57l57 84q-86 81 -86 203q0 120 87 205t209 85q56 0 109 -21l52 77l86 -58l-50 -73q97 -89 97 -215zM363 440q-19 5 -38 5q-66 0 -113.5 -49t-47.5 -118q0 -50 27 -93zM486 276q0 59 -36 107l-179 -264
q27 -10 54 -10q67 0 114 49t47 118z" />
    <glyph glyph-name="ugrave" unicode="&#xf9;" horiz-adv-x="600" 
d="M547 0h-123v53q-37 -37 -73 -51.5t-86 -14.5q-211 0 -211 270v297h133v-271q0 -103 26 -138.5t79 -35.5q69 0 101 51q21 35 21 133v261h133v-554zM394 682l-51 -78l-227 120l54 92z" />
    <glyph glyph-name="uacute" unicode="&#xfa;" horiz-adv-x="600" 
d="M547 0h-123v53q-37 -37 -73 -51.5t-86 -14.5q-211 0 -211 270v297h133v-271q0 -103 26 -138.5t79 -35.5q69 0 101 51q21 35 21 133v261h133v-554zM486 724l-227 -120l-51 78l224 134z" />
    <glyph glyph-name="ucircumflex" unicode="&#xfb;" horiz-adv-x="600" 
d="M547 0h-123v53q-37 -37 -73 -51.5t-86 -14.5q-211 0 -211 270v297h133v-271q0 -103 26 -138.5t79 -35.5q69 0 101 51q21 35 21 133v261h133v-554zM501 631h-145l-53 64l-54 -64h-147l147 138h107z" />
    <glyph glyph-name="udieresis" unicode="&#xfc;" horiz-adv-x="600" 
d="M547 0h-123v53q-37 -37 -73 -51.5t-86 -14.5q-211 0 -211 270v297h133v-271q0 -103 26 -138.5t79 -35.5q69 0 101 51q21 35 21 133v261h133v-554zM258 634h-133v133h133v-133zM468 634h-133v133h133v-133z" />
    <glyph glyph-name="yacute" unicode="&#xfd;" horiz-adv-x="580" 
d="M568 554l-320 -739h-143l104 237l-203 502h152l123 -359l134 359h153zM472 724l-227 -120l-51 78l224 134z" />
    <glyph glyph-name="thorn" unicode="&#xfe;" horiz-adv-x="660" 
d="M634 277q0 -127 -77.5 -208.5t-197.5 -81.5q-106 0 -172 72v-244h-133v924h133v-244q66 72 172 72q120 0 197.5 -82t77.5 -208zM500 277q0 71 -46 119.5t-113 48.5q-69 0 -115.5 -47.5t-46.5 -118.5q0 -73 46 -121.5t116 -48.5q67 0 113 48.5t46 119.5z" />
    <glyph glyph-name="ydieresis" unicode="&#xff;" horiz-adv-x="580" 
d="M568 554l-320 -739h-143l104 237l-203 502h152l123 -359l134 359h153zM244 634h-133v133h133v-133zM454 634h-133v133h133v-133z" />
    <glyph glyph-name="Amacron" unicode="&#x100;" horiz-adv-x="740" 
d="M733 0h-151l-79 191h-263l-82 -191h-151l308 739h108zM448 322l-79 224l-79 -224h158zM510 825h-277v100h277v-100z" />
    <glyph glyph-name="amacron" unicode="&#x101;" horiz-adv-x="660" 
d="M615 0h-122v72q-40 -45 -83 -65t-101 -20q-121 0 -200 81.5t-79 206.5q0 127 79.5 209.5t202.5 82.5q115 0 181 -87v74h122v-554zM489 273q0 76 -46 124t-117 48t-116.5 -48.5t-45.5 -124.5q0 -73 45.5 -118t118.5 -45q74 0 117.5 46.5t43.5 117.5zM471 650h-277v100h277
v-100z" />
    <glyph glyph-name="Abreve" unicode="&#x102;" horiz-adv-x="740" 
d="M733 0h-151l-79 191h-263l-82 -191h-151l308 739h108zM448 322l-79 224l-79 -224h158zM534 945q-2 -62 -47.5 -100.5t-116.5 -38.5q-74 0 -118 36.5t-48 102.5h98q18 -43 68 -43q54 0 62 43h102z" />
    <glyph glyph-name="abreve" unicode="&#x103;" horiz-adv-x="660" 
d="M615 0h-122v72q-40 -45 -83 -65t-101 -20q-121 0 -200 81.5t-79 206.5q0 127 79.5 209.5t202.5 82.5q115 0 181 -87v74h122v-554zM489 273q0 76 -46 124t-117 48t-116.5 -48.5t-45.5 -124.5q0 -73 45.5 -118t118.5 -45q74 0 117.5 46.5t43.5 117.5zM494 770
q-2 -62 -47.5 -100.5t-116.5 -38.5q-74 0 -118 36.5t-48 102.5h98q18 -43 68 -43q54 0 62 43h102z" />
    <glyph glyph-name="Aogonek" unicode="&#x104;" horiz-adv-x="740" 
d="M733 -231q-47 -19 -76 -19q-53 0 -89.5 32.5t-36.5 82.5q0 72 80 135h-29l-79 191h-263l-82 -191h-151l308 739h108l310 -739q-46 -15 -71 -41.5t-25 -49.5q0 -28 8.5 -40.5t29.5 -12.5q28 0 58 13v-100zM448 322l-79 224l-79 -224h158z" />
    <glyph glyph-name="aogonek" unicode="&#x105;" horiz-adv-x="660" 
d="M615 -231q-47 -19 -76 -19q-53 0 -89.5 32.5t-36.5 82.5q0 72 80 135v72q-40 -45 -83 -65t-101 -20q-121 0 -200 81.5t-79 206.5q0 127 79.5 209.5t202.5 82.5q115 0 181 -87v74h122v-554q-46 -15 -71 -41.5t-25 -49.5q0 -28 8.5 -40.5t29.5 -12.5q28 0 58 13v-100z
M489 273q0 76 -46 124t-117 48t-116.5 -48.5t-45.5 -124.5q0 -73 45.5 -118t118.5 -45q74 0 117.5 46.5t43.5 117.5z" />
    <glyph glyph-name="Cacute" unicode="&#x106;" horiz-adv-x="780" 
d="M760 206q-43 -101 -135.5 -160t-205.5 -59q-162 0 -275.5 112.5t-113.5 272.5q0 157 111.5 268.5t268.5 111.5q115 0 208.5 -59.5t141.5 -165.5h-153q-38 49 -84 71t-110 22q-105 0 -175 -72t-70 -177q0 -104 73 -178t175 -74q54 0 96 20t87 67h161zM595 899l-227 -120
l-51 78l224 134z" />
    <glyph glyph-name="cacute" unicode="&#x107;" 
d="M601 182q-35 -93 -106.5 -144t-168.5 -51q-123 0 -209.5 84.5t-86.5 205.5q0 122 84.5 206t207.5 84q96 0 171.5 -52t107.5 -146h-150q-40 76 -129 76q-69 0 -113.5 -47t-44.5 -120t46 -121t115 -48q79 0 126 73h150zM507 724l-227 -120l-51 78l224 134z" />
    <glyph glyph-name="Ccircumflex" unicode="&#x108;" horiz-adv-x="780" 
d="M760 206q-43 -101 -135.5 -160t-205.5 -59q-162 0 -275.5 112.5t-113.5 272.5q0 157 111.5 268.5t268.5 111.5q115 0 208.5 -59.5t141.5 -165.5h-153q-38 49 -84 71t-110 22q-105 0 -175 -72t-70 -177q0 -104 73 -178t175 -74q54 0 96 20t87 67h161zM610 806h-145l-53 64
l-54 -64h-147l147 138h107z" />
    <glyph glyph-name="ccircumflex" unicode="&#x109;" 
d="M601 182q-35 -93 -106.5 -144t-168.5 -51q-123 0 -209.5 84.5t-86.5 205.5q0 122 84.5 206t207.5 84q96 0 171.5 -52t107.5 -146h-150q-40 76 -129 76q-69 0 -113.5 -47t-44.5 -120t46 -121t115 -48q79 0 126 73h150zM522 631h-145l-53 64l-54 -64h-147l147 138h107z" />
    <glyph glyph-name="Cdotaccent" unicode="&#x10a;" horiz-adv-x="780" 
d="M760 206q-43 -101 -135.5 -160t-205.5 -59q-162 0 -275.5 112.5t-113.5 272.5q0 157 111.5 268.5t268.5 111.5q115 0 208.5 -59.5t141.5 -165.5h-153q-38 49 -84 71t-110 22q-105 0 -175 -72t-70 -177q0 -104 73 -178t175 -74q54 0 96 20t87 67h161zM477 809h-133v133
h133v-133z" />
    <glyph glyph-name="cdotaccent" unicode="&#x10b;" 
d="M601 182q-35 -93 -106.5 -144t-168.5 -51q-123 0 -209.5 84.5t-86.5 205.5q0 122 84.5 206t207.5 84q96 0 171.5 -52t107.5 -146h-150q-40 76 -129 76q-69 0 -113.5 -47t-44.5 -120t46 -121t115 -48q79 0 126 73h150zM389 634h-133v133h133v-133z" />
    <glyph glyph-name="Ccaron" unicode="&#x10c;" horiz-adv-x="780" 
d="M760 206q-43 -101 -135.5 -160t-205.5 -59q-162 0 -275.5 112.5t-113.5 272.5q0 157 111.5 268.5t268.5 111.5q115 0 208.5 -59.5t141.5 -165.5h-153q-38 49 -84 71t-110 22q-105 0 -175 -72t-70 -177q0 -104 73 -178t175 -74q54 0 96 20t87 67h161zM610 944l-147 -138
h-107l-145 138h145l53 -64l54 64h147z" />
    <glyph glyph-name="ccaron" unicode="&#x10d;" 
d="M601 182q-35 -93 -106.5 -144t-168.5 -51q-123 0 -209.5 84.5t-86.5 205.5q0 122 84.5 206t207.5 84q96 0 171.5 -52t107.5 -146h-150q-40 76 -129 76q-69 0 -113.5 -47t-44.5 -120t46 -121t115 -48q79 0 126 73h150zM522 769l-147 -138h-107l-145 138h145l53 -64l54 64
h147z" />
    <glyph glyph-name="Dcaron" unicode="&#x10e;" horiz-adv-x="700" 
d="M660 368q0 -112 -48 -198.5t-133 -128.5q-82 -41 -239 -41h-172v739h169q174 0 262 -53q77 -46 119 -129.5t42 -188.5zM522 368q0 71 -30 127t-83 83q-59 30 -177 30h-27v-477h30q121 0 180 33q49 27 78 82t29 122zM480 944l-147 -138h-107l-145 138h145l53 -64l54 64
h147z" />
    <glyph glyph-name="dcaron" unicode="&#x10f;" horiz-adv-x="660" 
d="M613 0h-122v72q-75 -85 -183 -85q-118 0 -198 84t-80 207q0 124 80.5 210t196.5 86q110 0 173 -69v234h133v-739zM490 280q0 73 -47 122.5t-117 49.5q-68 0 -115 -48.5t-47 -119.5q0 -74 47.5 -124.5t117.5 -50.5q68 0 114.5 49.5t46.5 121.5zM829 739l-58 -192h-104
l58 192h104z" />
    <glyph glyph-name="Dcroat" unicode="&#x110;" horiz-adv-x="742" 
d="M702 367q0 -112 -48 -198t-133 -128q-82 -41 -239 -41h-172v315h-96v107h96v317h169q174 0 262 -53q77 -46 119 -129.5t42 -189.5zM564 368q0 71 -30.5 127t-82.5 83q-59 30 -177 30h-27v-186h154v-107h-154v-184h30q121 0 180 33q50 27 78.5 82t28.5 122z" />
    <glyph glyph-name="dcroat" unicode="&#x111;" horiz-adv-x="660" 
d="M660 602h-47v-602h-122v72q-40 -45 -83.5 -65t-99.5 -20q-118 0 -198 84t-80 207q0 125 80.5 210.5t197.5 85.5q110 0 172 -70v98h-126v87h126v50h133v-50h47v-87zM490 280q0 73 -47 122.5t-117 49.5q-68 0 -115 -48.5t-47 -119.5q0 -74 47.5 -124.5t117.5 -50.5
q68 0 114.5 49.5t46.5 121.5z" />
    <glyph glyph-name="Emacron" unicode="&#x112;" horiz-adv-x="520" 
d="M465 0h-397v739h397v-131h-260v-174h249v-131h-249v-172h260v-131zM408 825h-277v100h277v-100z" />
    <glyph glyph-name="emacron" unicode="&#x113;" 
d="M608 269q0 -27 -5 -51h-429q12 -50 53 -79.5t100 -29.5q41 0 68.5 12.5t53.5 42.5h145q-27 -82 -101.5 -129.5t-162.5 -47.5q-127 0 -213.5 83t-86.5 205t85 207t207 85q124 0 205 -84.5t81 -213.5zM477 335q-13 53 -52.5 81.5t-100.5 28.5q-121 0 -154 -110h307z
M463 650h-277v100h277v-100z" />
    <glyph glyph-name="Ebreve" unicode="&#x114;" horiz-adv-x="520" 
d="M465 0h-397v739h397v-131h-260v-174h249v-131h-249v-172h260v-131zM432 945q-2 -62 -47.5 -100.5t-116.5 -38.5q-74 0 -118 36.5t-48 102.5h98q18 -43 68 -43q54 0 62 43h102z" />
    <glyph glyph-name="ebreve" unicode="&#x115;" 
d="M608 269q0 -27 -5 -51h-429q12 -50 53 -79.5t100 -29.5q41 0 68.5 12.5t53.5 42.5h145q-27 -82 -101.5 -129.5t-162.5 -47.5q-127 0 -213.5 83t-86.5 205t85 207t207 85q124 0 205 -84.5t81 -213.5zM477 335q-13 53 -52.5 81.5t-100.5 28.5q-121 0 -154 -110h307z
M486 770q-2 -62 -47.5 -100.5t-116.5 -38.5q-74 0 -118 36.5t-48 102.5h98q18 -43 68 -43q54 0 62 43h102z" />
    <glyph glyph-name="Edotaccent" unicode="&#x116;" horiz-adv-x="520" 
d="M465 0h-397v739h397v-131h-260v-174h249v-131h-249v-172h260v-131zM334 809h-133v133h133v-133z" />
    <glyph glyph-name="edotaccent" unicode="&#x117;" 
d="M608 269q0 -27 -5 -51h-429q12 -50 53 -79.5t100 -29.5q41 0 68.5 12.5t53.5 42.5h145q-27 -82 -101.5 -129.5t-162.5 -47.5q-127 0 -213.5 83t-86.5 205t85 207t207 85q124 0 205 -84.5t81 -213.5zM477 335q-13 53 -52.5 81.5t-100.5 28.5q-121 0 -154 -110h307z
M389 634h-133v133h133v-133z" />
    <glyph glyph-name="Eogonek" unicode="&#x118;" horiz-adv-x="520" 
d="M465 -231q-47 -19 -76 -19q-53 0 -89.5 32.5t-36.5 82.5q0 72 80 135h-275v739h397v-131h-260v-174h249v-131h-249v-172h260v-131q-46 -15 -71 -41.5t-25 -49.5q0 -28 8.5 -40.5t29.5 -12.5q28 0 58 13v-100z" />
    <glyph glyph-name="eogonek" unicode="&#x119;" 
d="M608 269q0 -27 -5 -51h-429q12 -50 53 -79.5t100 -29.5q41 0 68.5 12.5t53.5 42.5h145q-29 -90 -118 -140q-96 -52 -96 -115q0 -28 8.5 -40.5t29.5 -12.5q28 0 58 13v-100q-47 -19 -76 -19q-53 0 -89.5 32.5t-36.5 82.5q0 62 65 122h-9q-127 0 -213.5 83t-86.5 205
t85 207t207 85q124 0 205 -84.5t81 -213.5zM477 335q-13 53 -52.5 81.5t-100.5 28.5q-121 0 -154 -110h307z" />
    <glyph glyph-name="Ecaron" unicode="&#x11a;" horiz-adv-x="520" 
d="M465 0h-397v739h397v-131h-260v-174h249v-131h-249v-172h260v-131zM467 944l-147 -138h-107l-145 138h145l53 -64l54 64h147z" />
    <glyph glyph-name="ecaron" unicode="&#x11b;" 
d="M608 269q0 -27 -5 -51h-429q12 -50 53 -79.5t100 -29.5q41 0 68.5 12.5t53.5 42.5h145q-27 -82 -101.5 -129.5t-162.5 -47.5q-127 0 -213.5 83t-86.5 205t85 207t207 85q124 0 205 -84.5t81 -213.5zM477 335q-13 53 -52.5 81.5t-100.5 28.5q-121 0 -154 -110h307z
M522 769l-147 -138h-107l-145 138h145l53 -64l54 64h147z" />
    <glyph glyph-name="Gcircumflex" unicode="&#x11c;" horiz-adv-x="840" 
d="M818 359q0 -152 -112 -262t-274 -110q-170 0 -286 111t-116 273q0 159 113.5 270t275.5 111q121 0 223 -65t138 -165h-161q-70 98 -203 98q-108 0 -178 -72.5t-70 -178.5t73.5 -178t182.5 -72q73 0 130 34t87 96h-306v128h483v-18zM619 806h-145l-53 64l-54 -64h-147
l147 138h107z" />
    <glyph glyph-name="gcircumflex" unicode="&#x11d;" horiz-adv-x="660" 
d="M611 105q0 -326 -287 -326q-102 0 -176.5 46.5t-108.5 129.5h151q29 -32 60.5 -45.5t78.5 -13.5q148 0 155 177q-39 -46 -81.5 -66t-100.5 -20q-119 0 -195.5 83t-76.5 211q0 123 77.5 204.5t195.5 81.5q120 0 181 -83v70h127v-449zM478 275q0 76 -44.5 123t-115.5 47
q-70 0 -112 -46.5t-42 -123.5q0 -76 42.5 -121t113.5 -45t114.5 45.5t43.5 120.5zM503 631h-145l-53 64l-54 -64h-147l147 138h107z" />
    <glyph glyph-name="Gbreve" unicode="&#x11e;" horiz-adv-x="840" 
d="M818 359q0 -152 -112 -262t-274 -110q-170 0 -286 111t-116 273q0 159 113.5 270t275.5 111q121 0 223 -65t138 -165h-161q-70 98 -203 98q-108 0 -178 -72.5t-70 -178.5t73.5 -178t182.5 -72q73 0 130 34t87 96h-306v128h483v-18zM584 945q-2 -62 -47.5 -100.5
t-116.5 -38.5q-74 0 -118 36.5t-48 102.5h98q18 -43 68 -43q54 0 62 43h102z" />
    <glyph glyph-name="gbreve" unicode="&#x11f;" horiz-adv-x="660" 
d="M611 105q0 -326 -287 -326q-102 0 -176.5 46.5t-108.5 129.5h151q29 -32 60.5 -45.5t78.5 -13.5q148 0 155 177q-39 -46 -81.5 -66t-100.5 -20q-119 0 -195.5 83t-76.5 211q0 123 77.5 204.5t195.5 81.5q120 0 181 -83v70h127v-449zM478 275q0 76 -44.5 123t-115.5 47
q-70 0 -112 -46.5t-42 -123.5q0 -76 42.5 -121t113.5 -45t114.5 45.5t43.5 120.5zM467 770q-2 -62 -47.5 -100.5t-116.5 -38.5q-74 0 -118 36.5t-48 102.5h98q18 -43 68 -43q54 0 62 43h102z" />
    <glyph glyph-name="Gdotaccent" unicode="&#x120;" horiz-adv-x="840" 
d="M818 359q0 -152 -112 -262t-274 -110q-170 0 -286 111t-116 273q0 159 113.5 270t275.5 111q121 0 223 -65t138 -165h-161q-70 98 -203 98q-108 0 -178 -72.5t-70 -178.5t73.5 -178t182.5 -72q73 0 130 34t87 96h-306v128h483v-18zM486 809h-133v133h133v-133z" />
    <glyph glyph-name="gdotaccent" unicode="&#x121;" horiz-adv-x="660" 
d="M611 105q0 -326 -287 -326q-102 0 -176.5 46.5t-108.5 129.5h151q29 -32 60.5 -45.5t78.5 -13.5q148 0 155 177q-39 -46 -81.5 -66t-100.5 -20q-119 0 -195.5 83t-76.5 211q0 123 77.5 204.5t195.5 81.5q120 0 181 -83v70h127v-449zM478 275q0 76 -44.5 123t-115.5 47
q-70 0 -112 -46.5t-42 -123.5q0 -76 42.5 -121t113.5 -45t114.5 45.5t43.5 120.5zM370 634h-133v133h133v-133z" />
    <glyph glyph-name="Gcommaaccent" unicode="&#x122;" horiz-adv-x="840" 
d="M818 359q0 -152 -112 -262t-274 -110q-170 0 -286 111t-116 273q0 159 113.5 270t275.5 111q121 0 223 -65t138 -165h-161q-70 98 -203 98q-108 0 -178 -72.5t-70 -178.5t73.5 -178t182.5 -72q73 0 130 34t87 96h-306v128h483v-18zM477 -53l-58 -192h-104l58 192h104z
" />
    <glyph glyph-name="gcommaaccent" unicode="&#x123;" horiz-adv-x="660" 
d="M384 823l-58 -192h-104l58 192h104zM611 105q0 -326 -287 -326q-102 0 -176.5 46.5t-108.5 129.5h151q29 -32 60.5 -45.5t78.5 -13.5q148 0 155 177q-39 -46 -81.5 -66t-100.5 -20q-119 0 -195.5 83t-76.5 211q0 123 77.5 204.5t195.5 81.5q120 0 181 -83v70h127v-449z
M478 275q0 76 -44.5 123t-115.5 47q-70 0 -112 -46.5t-42 -123.5q0 -76 42.5 -121t113.5 -45t114.5 45.5t43.5 120.5z" />
    <glyph glyph-name="Hcircumflex" unicode="&#x124;" horiz-adv-x="680" 
d="M606 0h-137v310h-264v-310h-137v739h137v-298h264v298h137v-739zM537 806h-145l-53 64l-54 -64h-147l147 138h107z" />
    <glyph glyph-name="hcircumflex" unicode="&#x125;" horiz-adv-x="600" 
d="M545 0h-133v283q0 87 -25 124.5t-83 37.5q-59 0 -88 -37.5t-29 -126.5v-281h-133v739h133v-223q58 52 141 52q217 0 217 -255v-313zM500 806h-145l-53 64l-54 -64h-147l147 138h107z" />
    <glyph glyph-name="Hbar" unicode="&#x126;" horiz-adv-x="680" 
d="M672 549h-66v-549h-137v310h-264v-310h-137v549h-60v100h60v90h137v-90h264v90h137v-90h66v-100zM469 441v108h-264v-108h264z" />
    <glyph glyph-name="hbar" unicode="&#x127;" horiz-adv-x="600" 
d="M544 0h-133v283q0 87 -25 124.5t-83 37.5q-68 0 -98 -53q-19 -34 -19 -111v-281h-133v602h-70v100h70v37h133v-37h75v-100h-74l-1 -86q58 52 141 52q123 0 180 -88q37 -56 37 -167v-313z" />
    <glyph glyph-name="Itilde" unicode="&#x128;" horiz-adv-x="280" 
d="M205 0h-137v739h137v-739zM302 862q-45 -55 -94 -55q-13 0 -58.5 12.5t-54.5 12.5q-18 0 -29.5 -4t-40.5 -21l-54 80q26 26 49 36.5t54 10.5q12 0 52.5 -12.5t54.5 -12.5q37 0 67 34z" />
    <glyph glyph-name="itilde" unicode="&#x129;" horiz-adv-x="240" 
d="M187 0h-133v554h133v-554zM286 687q-45 -55 -94 -55q-13 0 -58.5 12.5t-54.5 12.5q-18 0 -29.5 -4t-40.5 -21l-54 80q26 26 49 36.5t54 10.5q12 0 52.5 -12.5t54.5 -12.5q37 0 67 34z" />
    <glyph glyph-name="Imacron" unicode="&#x12a;" horiz-adv-x="280" 
d="M205 0h-137v739h137v-739zM278 825h-277v100h277v-100z" />
    <glyph glyph-name="imacron" unicode="&#x12b;" horiz-adv-x="240" 
d="M187 0h-133v554h133v-554zM262 650h-277v100h277v-100z" />
    <glyph glyph-name="Ibreve" unicode="&#x12c;" horiz-adv-x="280" 
d="M205 0h-137v739h137v-739zM302 945q-2 -62 -47.5 -100.5t-116.5 -38.5q-74 0 -118 36.5t-48 102.5h98q18 -43 68 -43q54 0 62 43h102z" />
    <glyph glyph-name="ibreve" unicode="&#x12d;" horiz-adv-x="240" 
d="M187 0h-133v554h133v-554zM285 770q-2 -62 -47.5 -100.5t-116.5 -38.5q-74 0 -118 36.5t-48 102.5h98q18 -43 68 -43q54 0 62 43h102z" />
    <glyph glyph-name="Iogonek" unicode="&#x12e;" horiz-adv-x="280" 
d="M205 -231q-47 -19 -76 -19q-53 0 -89.5 32.5t-36.5 82.5q0 72 80 135h-15v739h137v-739q-46 -15 -71 -41.5t-25 -49.5q0 -28 8.5 -40.5t29.5 -12.5q28 0 58 13v-100z" />
    <glyph glyph-name="iogonek" unicode="&#x12f;" horiz-adv-x="240" 
d="M187 -231q-47 -19 -76 -19q-53 0 -89.5 32.5t-36.5 82.5q0 72 80 135h-11v554h133v-554q-46 -15 -71 -41.5t-25 -49.5q0 -28 8.5 -40.5t29.5 -12.5q28 0 58 13v-100zM187 634h-133v133h133v-133z" />
    <glyph glyph-name="Idotaccent" unicode="&#x130;" horiz-adv-x="280" 
d="M205 0h-137v739h137v-739zM204 809h-133v133h133v-133z" />
    <glyph glyph-name="dotlessi" unicode="&#x131;" horiz-adv-x="240" 
d="M187 0h-133v554h133v-554z" />
    <glyph glyph-name="Jcircumflex" unicode="&#x134;" horiz-adv-x="480" 
d="M414 212q0 -104 -53.5 -164.5t-146.5 -60.5q-83 0 -139.5 48.5t-65.5 139.5h137q14 -56 65 -56q66 0 66 97v523h137v-527zM546 806h-145l-53 64l-54 -64h-147l147 138h107z" />
    <glyph glyph-name="jcircumflex" unicode="&#x135;" horiz-adv-x="260" 
d="M205 37q0 -109 -50.5 -165.5t-137.5 -56.5v129q37 7 46 22t9 74v514h133v-517zM339 631h-145l-53 64l-54 -64h-147l147 138h107z" />
    <glyph glyph-name="Kcommaaccent" unicode="&#x136;" horiz-adv-x="620" 
d="M599 0h-165l-229 325v-325h-137v739h137v-319l229 319h165l-278 -363zM377 -53l-58 -192h-104l58 192h104z" />
    <glyph glyph-name="kcommaaccent" unicode="&#x137;" horiz-adv-x="580" 
d="M555 0h-179l-189 259v-259h-133v739h133v-446l177 261h159l-198 -271zM339 -53l-58 -192h-104l58 192h104z" />
    <glyph glyph-name="Lacute" unicode="&#x139;" horiz-adv-x="440" 
d="M431 0h-363v739h137v-608h226v-131zM295 899l-227 -120l-51 78l224 134z" />
    <glyph glyph-name="lacute" unicode="&#x13a;" horiz-adv-x="240" 
d="M187 0h-133v739h133v-739zM281 899l-227 -120l-51 78l224 134z" />
    <glyph glyph-name="Lcommaaccent" unicode="&#x13b;" horiz-adv-x="440" 
d="M431 0h-363v739h137v-608h226v-131zM307 -53l-58 -192h-104l58 192h104z" />
    <glyph glyph-name="lcommaaccent" unicode="&#x13c;" horiz-adv-x="240" 
d="M187 0h-133v739h133v-739zM178 -53l-58 -192h-104l58 192h104z" />
    <glyph glyph-name="Lcaron" unicode="&#x13d;" horiz-adv-x="440" 
d="M431 0h-363v739h137v-608h226v-131zM421 739l-58 -192h-104l58 192h104z" />
    <glyph glyph-name="lcaron" unicode="&#x13e;" horiz-adv-x="240" 
d="M187 0h-133v739h133v-739zM403 739l-58 -192h-104l58 192h104z" />
    <glyph glyph-name="Ldot" unicode="&#x13f;" horiz-adv-x="440" 
d="M431 0h-363v739h137v-608h226v-131zM423 317h-133v133h133v-133z" />
    <glyph glyph-name="ldot" unicode="&#x140;" horiz-adv-x="373" 
d="M187 0h-133v739h133v-739zM373 317h-133v133h133v-133z" />
    <glyph glyph-name="Lslash" unicode="&#x141;" horiz-adv-x="480" 
d="M473 0h-363v273l-96 -79v124l96 79v342h137v-265l142 110v-123l-142 -111v-222h226v-128z" />
    <glyph glyph-name="lslash" unicode="&#x142;" horiz-adv-x="320" 
d="M312 446l-81 -63v-383h-133v317l-81 -62v99l81 63v322h133v-257l81 63v-99z" />
    <glyph glyph-name="Nacute" unicode="&#x143;" horiz-adv-x="740" 
d="M667 0h-153l-309 537v-537h-137v739h156l306 -538v538h137v-739zM553 899l-227 -120l-51 78l224 134z" />
    <glyph glyph-name="nacute" unicode="&#x144;" horiz-adv-x="600" 
d="M546 0h-133v271q0 104 -25.5 139t-80.5 35q-66 0 -98 -51q-22 -35 -22 -133v-261h-133v554h123v-53q69 66 156 66q118 0 173 -80q22 -32 31 -74t9 -116v-297zM485 724l-227 -120l-51 78l224 134z" />
    <glyph glyph-name="Ncommaaccent" unicode="&#x145;" horiz-adv-x="740" 
d="M667 0h-153l-309 537v-537h-137v739h156l306 -538v538h137v-739zM425 -53l-58 -192h-104l58 192h104z" />
    <glyph glyph-name="ncommaaccent" unicode="&#x146;" horiz-adv-x="600" 
d="M546 0h-133v271q0 104 -25.5 139t-80.5 35q-66 0 -98 -51q-22 -35 -22 -133v-261h-133v554h123v-53q69 66 156 66q118 0 173 -80q22 -32 31 -74t9 -116v-297zM358 -53l-58 -192h-104l58 192h104z" />
    <glyph glyph-name="Ncaron" unicode="&#x147;" horiz-adv-x="740" 
d="M667 0h-153l-309 537v-537h-137v739h156l306 -538v538h137v-739zM568 944l-147 -138h-107l-145 138h145l53 -64l54 64h147z" />
    <glyph glyph-name="ncaron" unicode="&#x148;" horiz-adv-x="600" 
d="M546 0h-133v271q0 104 -25.5 139t-80.5 35q-66 0 -98 -51q-22 -35 -22 -133v-261h-133v554h123v-53q69 66 156 66q118 0 173 -80q22 -32 31 -74t9 -116v-297zM500 769l-147 -138h-107l-145 138h145l53 -64l54 64h147z" />
    <glyph glyph-name="Eng" unicode="&#x14a;" horiz-adv-x="740" 
d="M667 -25q0 -104 -53.5 -164.5t-146.5 -60.5q-83 0 -139.5 48.5t-65.5 139.5h137q14 -56 65 -56q28 0 47 21t19 51v18l-325 565v-537h-137v739h156l306 -538v538h137v-764z" />
    <glyph glyph-name="eng" unicode="&#x14b;" horiz-adv-x="600" 
d="M546 37q0 -109 -50.5 -165.5t-137.5 -56.5v129q37 7 46 22t9 74v231q0 104 -25.5 139t-80.5 35q-66 0 -98 -51q-22 -35 -22 -133v-261h-133v554h123v-53q69 66 156 66q118 0 173 -80q22 -32 31 -74t9 -116v-260z" />
    <glyph glyph-name="Omacron" unicode="&#x14c;" horiz-adv-x="840" 
d="M800 370q0 -162 -110 -272.5t-271 -110.5q-163 0 -276 111t-113 271q0 162 112.5 272.5t277.5 110.5q158 0 269 -112t111 -270zM662 368q0 106 -70.5 179t-173.5 73q-107 0 -178.5 -72t-71.5 -179q0 -105 72.5 -177.5t177.5 -72.5t174.5 71t69.5 178zM561 825h-277v100
h277v-100z" />
    <glyph glyph-name="omacron" unicode="&#x14d;" 
d="M619 273q0 -117 -87 -201.5t-208 -84.5q-122 0 -208 85t-86 205q0 119 86 204.5t207 85.5q125 0 210.5 -85t85.5 -209zM485 277q0 69 -47 118.5t-114 49.5q-65 0 -112.5 -49t-47.5 -117q0 -71 47 -120.5t114 -49.5q66 0 113 49t47 119zM464 650h-277v100h277v-100z" />
    <glyph glyph-name="Obreve" unicode="&#x14e;" horiz-adv-x="840" 
d="M800 370q0 -162 -110 -272.5t-271 -110.5q-163 0 -276 111t-113 271q0 162 112.5 272.5t277.5 110.5q158 0 269 -112t111 -270zM662 368q0 106 -70.5 179t-173.5 73q-107 0 -178.5 -72t-71.5 -179q0 -105 72.5 -177.5t177.5 -72.5t174.5 71t69.5 178zM585 945
q-2 -62 -47.5 -100.5t-116.5 -38.5q-74 0 -118 36.5t-48 102.5h98q18 -43 68 -43q54 0 62 43h102z" />
    <glyph glyph-name="obreve" unicode="&#x14f;" 
d="M619 273q0 -117 -87 -201.5t-208 -84.5q-122 0 -208 85t-86 205q0 119 86 204.5t207 85.5q125 0 210.5 -85t85.5 -209zM485 277q0 69 -47 118.5t-114 49.5q-65 0 -112.5 -49t-47.5 -117q0 -71 47 -120.5t114 -49.5q66 0 113 49t47 119zM487 770q-2 -62 -47.5 -100.5
t-116.5 -38.5q-74 0 -118 36.5t-48 102.5h98q18 -43 68 -43q54 0 62 43h102z" />
    <glyph glyph-name="Ohungarumlaut" unicode="&#x150;" horiz-adv-x="840" 
d="M800 370q0 -162 -110 -272.5t-271 -110.5q-163 0 -276 111t-113 271q0 162 112.5 272.5t277.5 110.5q158 0 269 -112t111 -270zM662 368q0 106 -70.5 179t-173.5 73q-107 0 -178.5 -72t-71.5 -179q0 -105 72.5 -177.5t177.5 -72.5t174.5 71t69.5 178zM506 911l-222 -132
l-50 69l210 143zM769 911l-221 -132l-51 69l211 143z" />
    <glyph glyph-name="ohungarumlaut" unicode="&#x151;" 
d="M619 273q0 -117 -87 -201.5t-208 -84.5q-122 0 -208 85t-86 205q0 119 86 204.5t207 85.5q125 0 210.5 -85t85.5 -209zM485 277q0 69 -47 118.5t-114 49.5q-65 0 -112.5 -49t-47.5 -117q0 -71 47 -120.5t114 -49.5q66 0 113 49t47 119zM409 726l-222 -132l-50 69l210 143
zM672 726l-221 -132l-51 69l211 143z" />
    <glyph glyph-name="OE" unicode="&#x152;" horiz-adv-x="1060" 
d="M1004 0h-357v81q-85 -94 -229 -94q-162 0 -271 109.5t-109 272.5q0 164 107 273.5t268 109.5q151 0 234 -95v82h357v-131h-218v-174h207v-131h-207v-172h218v-131zM652 368q0 108 -67.5 180t-169.5 72q-104 0 -171.5 -74t-67.5 -181q0 -104 69 -175t171 -71
q103 0 169.5 70.5t66.5 178.5z" />
    <glyph glyph-name="oe" unicode="&#x153;" horiz-adv-x="1080" 
d="M1048 284q0 -32 -5 -66h-429q17 -50 57.5 -79.5t95.5 -29.5q34 0 67.5 15t53.5 39h142q-29 -80 -100.5 -128t-161.5 -48q-146 0 -225 113q-78 -113 -219 -113q-126 0 -210 83t-84 207q0 121 84 205.5t206 84.5q136 0 223 -111q48 59 100 85t119 26q125 0 205.5 -81
t80.5 -202zM486 276q0 72 -46.5 120.5t-114.5 48.5q-67 0 -114 -48t-47 -116q0 -74 47 -123t118 -49q67 0 112 48t45 119zM910 335q-32 110 -150 110q-114 0 -152 -110h302z" />
    <glyph glyph-name="Racute" unicode="&#x154;" horiz-adv-x="580" 
d="M568 0h-169l-194 283v-283h-137v739h213q76 0 121 -12t81 -43q78 -66 78 -182q0 -181 -193 -229zM423 498q0 55 -33 82.5t-124 27.5h-61v-222h67q79 0 115 26.5t36 85.5zM475 899l-227 -120l-51 78l224 134z" />
    <glyph glyph-name="racute" unicode="&#x155;" horiz-adv-x="320" 
d="M306 439q-119 -3 -119 -131v-308h-133v554h122v-54q26 38 51.5 52.5t68.5 14.5h10v-128zM361 724l-227 -120l-51 78l224 134z" />
    <glyph glyph-name="Rcommaaccent" unicode="&#x156;" horiz-adv-x="580" 
d="M568 0h-169l-194 283v-283h-137v739h213q76 0 121 -12t81 -43q78 -66 78 -182q0 -181 -193 -229zM423 498q0 55 -33 82.5t-124 27.5h-61v-222h67q79 0 115 26.5t36 85.5zM348 -53l-58 -192h-104l58 192h104z" />
    <glyph glyph-name="rcommaaccent" unicode="&#x157;" horiz-adv-x="320" 
d="M306 439q-119 -3 -119 -131v-308h-133v554h122v-54q26 38 51.5 52.5t68.5 14.5h10v-128zM178 -53l-58 -192h-104l58 192h104z" />
    <glyph glyph-name="Rcaron" unicode="&#x158;" horiz-adv-x="580" 
d="M568 0h-169l-194 283v-283h-137v739h213q76 0 121 -12t81 -43q78 -66 78 -182q0 -181 -193 -229zM423 498q0 55 -33 82.5t-124 27.5h-61v-222h67q79 0 115 26.5t36 85.5zM490 944l-147 -138h-107l-145 138h145l53 -64l54 64h147z" />
    <glyph glyph-name="rcaron" unicode="&#x159;" horiz-adv-x="320" 
d="M306 439q-119 -3 -119 -131v-308h-133v554h122v-54q26 38 51.5 52.5t68.5 14.5h10v-128zM376 769l-147 -138h-107l-145 138h145l53 -64l54 64h147z" />
    <glyph glyph-name="Sacute" unicode="&#x15a;" horiz-adv-x="520" 
d="M493 224q0 -100 -68 -168.5t-168 -68.5q-99 0 -166.5 60.5t-76.5 163.5h143q9 -92 100 -92q44 0 72 25t28 65q0 49 -34 75q-16 12 -34 20t-94 37q-74 28 -114 79.5t-40 121.5q0 88 63 149t152 61q91 0 152.5 -57t66.5 -153h-142q-3 38 -23 58t-55 20q-34 0 -55 -21
t-21 -54q0 -41 41 -67q11 -7 82 -33q108 -40 149.5 -91t41.5 -130zM441 899l-227 -120l-51 78l224 134z" />
    <glyph glyph-name="sacute" unicode="&#x15b;" horiz-adv-x="440" 
d="M420 176q0 -79 -57.5 -134t-140.5 -55q-85 0 -139 47.5t-64 141.5h134q10 -35 27.5 -51t46.5 -16q26 0 43 15.5t17 38.5q0 25 -15 37t-79 34q-83 28 -118.5 65.5t-35.5 98.5q0 71 53.5 120t130.5 49q73 0 125.5 -45t56.5 -121h-130q-9 44 -52 44q-22 0 -36.5 -13.5
t-14.5 -33.5q0 -22 13 -30t81 -30q86 -27 120 -63.5t34 -98.5zM408 724l-227 -120l-51 78l224 134z" />
    <glyph glyph-name="Scircumflex" unicode="&#x15c;" horiz-adv-x="520" 
d="M493 224q0 -100 -68 -168.5t-168 -68.5q-99 0 -166.5 60.5t-76.5 163.5h143q9 -92 100 -92q44 0 72 25t28 65q0 49 -34 75q-16 12 -34 20t-94 37q-74 28 -114 79.5t-40 121.5q0 88 63 149t152 61q91 0 152.5 -57t66.5 -153h-142q-3 38 -23 58t-55 20q-34 0 -55 -21
t-21 -54q0 -41 41 -67q11 -7 82 -33q108 -40 149.5 -91t41.5 -130zM456 806h-145l-53 64l-54 -64h-147l147 138h107z" />
    <glyph glyph-name="scircumflex" unicode="&#x15d;" horiz-adv-x="440" 
d="M420 176q0 -79 -57.5 -134t-140.5 -55q-85 0 -139 47.5t-64 141.5h134q10 -35 27.5 -51t46.5 -16q26 0 43 15.5t17 38.5q0 25 -15 37t-79 34q-83 28 -118.5 65.5t-35.5 98.5q0 71 53.5 120t130.5 49q73 0 125.5 -45t56.5 -121h-130q-9 44 -52 44q-22 0 -36.5 -13.5
t-14.5 -33.5q0 -22 13 -30t81 -30q86 -27 120 -63.5t34 -98.5zM423 631h-145l-53 64l-54 -64h-147l147 138h107z" />
    <glyph glyph-name="Scedilla" unicode="&#x15e;" horiz-adv-x="520" 
d="M493 224q0 -99 -66.5 -167t-164.5 -70l-22 -45q18 7 29 7q37 0 64 -30t27 -71q0 -44 -26.5 -71t-69.5 -27q-38 0 -66 23.5t-34 60.5h61q13 -29 38 -29q16 0 27.5 13t11.5 32q0 18 -11.5 31t-27.5 13q-19 0 -38 -27l-52 26l40 97q-83 13 -137 71.5t-62 149.5h143
q9 -92 100 -92q44 0 72 25t28 65q0 49 -34 75q-16 12 -34 20t-94 37q-74 28 -114 79.5t-40 121.5q0 88 63 149t152 61q91 0 152.5 -57t66.5 -153h-142q-3 38 -23 58t-55 20q-34 0 -55 -21t-21 -54q0 -41 41 -67q11 -7 82 -33q108 -40 149.5 -91t41.5 -130z" />
    <glyph glyph-name="scedilla" unicode="&#x15f;" horiz-adv-x="440" 
d="M420 176q0 -79 -57.5 -134t-140.5 -55h-15l-22 -45q18 7 29 7q37 0 64 -30t27 -71q0 -44 -26.5 -71t-69.5 -27q-38 0 -66 23.5t-34 60.5h61q13 -29 38 -29q16 0 27.5 13t11.5 32q0 18 -11.5 31t-27.5 13q-19 0 -38 -27l-52 26l42 101q-125 32 -141 182h134
q10 -35 27.5 -51t46.5 -16q26 0 43 15.5t17 38.5q0 25 -15 37t-79 34q-83 28 -118.5 65.5t-35.5 98.5q0 71 53.5 120t130.5 49q73 0 125.5 -45t56.5 -121h-130q-9 44 -52 44q-22 0 -36.5 -13.5t-14.5 -33.5q0 -22 13 -30t81 -30q86 -27 120 -63.5t34 -98.5z" />
    <glyph glyph-name="Scaron" unicode="&#x160;" horiz-adv-x="520" 
d="M493 224q0 -100 -68 -168.5t-168 -68.5q-99 0 -166.5 60.5t-76.5 163.5h143q9 -92 100 -92q44 0 72 25t28 65q0 49 -34 75q-16 12 -34 20t-94 37q-74 28 -114 79.5t-40 121.5q0 88 63 149t152 61q91 0 152.5 -57t66.5 -153h-142q-3 38 -23 58t-55 20q-34 0 -55 -21
t-21 -54q0 -41 41 -67q11 -7 82 -33q108 -40 149.5 -91t41.5 -130zM456 944l-147 -138h-107l-145 138h145l53 -64l54 64h147z" />
    <glyph glyph-name="scaron" unicode="&#x161;" horiz-adv-x="440" 
d="M420 176q0 -79 -57.5 -134t-140.5 -55q-85 0 -139 47.5t-64 141.5h134q10 -35 27.5 -51t46.5 -16q26 0 43 15.5t17 38.5q0 25 -15 37t-79 34q-83 28 -118.5 65.5t-35.5 98.5q0 71 53.5 120t130.5 49q73 0 125.5 -45t56.5 -121h-130q-9 44 -52 44q-22 0 -36.5 -13.5
t-14.5 -33.5q0 -22 13 -30t81 -30q86 -27 120 -63.5t34 -98.5zM423 769l-147 -138h-107l-145 138h145l53 -64l54 64h147z" />
    <glyph glyph-name="Tcedilla" unicode="&#x162;" horiz-adv-x="420" 
d="M418 608h-137v-608h-62l-29 -58q18 7 29 7q37 0 64 -30t27 -71q0 -44 -26.5 -71t-69.5 -27q-38 0 -66 23.5t-34 60.5h61q13 -29 38 -29q16 0 27.5 13t11.5 32q0 18 -11.5 31t-27.5 13q-19 0 -38 -27l-52 26l44 107h-23v608h-137v131h411v-131z" />
    <glyph glyph-name="tcedilla" unicode="&#x163;" horiz-adv-x="300" 
d="M287 433h-80v-433h-58l-29 -58q18 7 29 7q37 0 64 -30t27 -71q0 -44 -26.5 -71t-69.5 -27q-38 0 -66 23.5t-34 60.5h61q13 -29 38 -29q16 0 27.5 13t11.5 32q0 18 -11.5 31t-27.5 13q-19 0 -38 -27l-52 26l44 107h-23v433h-65v121h65v185h133v-185h80v-121z" />
    <glyph glyph-name="Tcaron" unicode="&#x164;" horiz-adv-x="420" 
d="M418 608h-137v-608h-137v608h-137v131h411v-131zM413 944l-147 -138h-107l-145 138h145l53 -64l54 64h147z" />
    <glyph glyph-name="tcaron" unicode="&#x165;" horiz-adv-x="300" 
d="M287 433h-80v-433h-133v433h-65v121h65v185h133v-185h80v-121zM396 773l-58 -192h-104l58 192h104z" />
    <glyph glyph-name="Utilde" unicode="&#x168;" 
d="M567 271q0 -138 -68.5 -211t-181.5 -73q-112 0 -180.5 73.5t-68.5 210.5v468h137v-468q0 -82 28.5 -117t84.5 -35q55 0 83.5 34.5t28.5 117.5v468h137v-468zM483 862q-45 -55 -94 -55q-13 0 -58.5 12.5t-54.5 12.5q-18 0 -29.5 -4t-40.5 -21l-54 80q26 26 49 36.5
t54 10.5q12 0 52.5 -12.5t54.5 -12.5q37 0 67 34z" />
    <glyph glyph-name="utilde" unicode="&#x169;" horiz-adv-x="600" 
d="M547 0h-123v53q-37 -37 -73 -51.5t-86 -14.5q-211 0 -211 270v297h133v-271q0 -103 26 -138.5t79 -35.5q69 0 101 51q21 35 21 133v261h133v-554zM466 687q-45 -55 -94 -55q-13 0 -58.5 12.5t-54.5 12.5q-18 0 -29.5 -4t-40.5 -21l-54 80q26 26 49 36.5t54 10.5
q12 0 52.5 -12.5t54.5 -12.5q37 0 67 34z" />
    <glyph glyph-name="Umacron" unicode="&#x16a;" 
d="M567 271q0 -138 -68.5 -211t-181.5 -73q-112 0 -180.5 73.5t-68.5 210.5v468h137v-468q0 -82 28.5 -117t84.5 -35q55 0 83.5 34.5t28.5 117.5v468h137v-468zM459 825h-277v100h277v-100z" />
    <glyph glyph-name="umacron" unicode="&#x16b;" horiz-adv-x="600" 
d="M547 0h-123v53q-37 -37 -73 -51.5t-86 -14.5q-211 0 -211 270v297h133v-271q0 -103 26 -138.5t79 -35.5q69 0 101 51q21 35 21 133v261h133v-554zM442 650h-277v100h277v-100z" />
    <glyph glyph-name="Ubreve" unicode="&#x16c;" 
d="M567 271q0 -138 -68.5 -211t-181.5 -73q-112 0 -180.5 73.5t-68.5 210.5v468h137v-468q0 -82 28.5 -117t84.5 -35q55 0 83.5 34.5t28.5 117.5v468h137v-468zM483 945q-2 -62 -47.5 -100.5t-116.5 -38.5q-74 0 -118 36.5t-48 102.5h98q18 -43 68 -43q54 0 62 43h102z" />
    <glyph glyph-name="ubreve" unicode="&#x16d;" horiz-adv-x="600" 
d="M547 0h-123v53q-37 -37 -73 -51.5t-86 -14.5q-211 0 -211 270v297h133v-271q0 -103 26 -138.5t79 -35.5q69 0 101 51q21 35 21 133v261h133v-554zM465 770q-2 -62 -47.5 -100.5t-116.5 -38.5q-74 0 -118 36.5t-48 102.5h98q18 -43 68 -43q54 0 62 43h102z" />
    <glyph glyph-name="Uring" unicode="&#x16e;" 
d="M567 271q0 -138 -68.5 -211t-181.5 -73q-112 0 -180.5 73.5t-68.5 210.5v468h137v-468q0 -82 28.5 -117t84.5 -35q55 0 83.5 34.5t28.5 117.5v468h137v-468zM431 888q0 -47 -33 -80t-80 -33t-80 33t-33 80t33 80t81 33q46 0 79 -33t33 -80zM358 888q0 16 -12 28t-28 12
t-28 -12t-12 -28t12 -28t28 -12t28 12t12 28z" />
    <glyph glyph-name="uring" unicode="&#x16f;" horiz-adv-x="600" 
d="M547 0h-123v53q-37 -37 -73 -51.5t-86 -14.5q-211 0 -211 270v297h133v-271q0 -103 26 -138.5t79 -35.5q69 0 101 51q21 35 21 133v261h133v-554zM414 710q0 -47 -33 -80t-80 -33t-80 33t-33 80t33 80t81 33q46 0 79 -33t33 -80zM341 710q0 16 -11.5 28t-28.5 12
t-28.5 -12t-11.5 -28t11.5 -28t28.5 -12t28.5 12t11.5 28z" />
    <glyph glyph-name="Uhungarumlaut" unicode="&#x170;" 
d="M567 271q0 -138 -68.5 -211t-181.5 -73q-112 0 -180.5 73.5t-68.5 210.5v468h137v-468q0 -82 28.5 -117t84.5 -35q55 0 83.5 34.5t28.5 117.5v468h137v-468zM404 911l-222 -132l-50 69l210 143zM667 911l-221 -132l-51 69l211 143z" />
    <glyph glyph-name="uhungarumlaut" unicode="&#x171;" horiz-adv-x="600" 
d="M547 0h-123v53q-37 -37 -73 -51.5t-86 -14.5q-211 0 -211 270v297h133v-271q0 -103 26 -138.5t79 -35.5q69 0 101 51q21 35 21 133v261h133v-554zM387 726l-222 -132l-50 69l210 143zM650 726l-221 -132l-51 69l211 143z" />
    <glyph glyph-name="Uogonek" unicode="&#x172;" 
d="M567 271q0 -166 -99 -238q-34 -26 -49.5 -39t-34 -38t-18.5 -47q0 -28 8.5 -40.5t29.5 -12.5q28 0 58 13v-100q-47 -19 -76 -19q-53 0 -89.5 32.5t-36.5 82.5q0 63 64 122h-7q-112 0 -180.5 73.5t-68.5 210.5v468h137v-468q0 -82 28.5 -117t84.5 -35q55 0 83.5 34.5
t28.5 117.5v468h137v-468z" />
    <glyph glyph-name="uogonek" unicode="&#x173;" horiz-adv-x="600" 
d="M547 -231q-47 -19 -76 -19q-53 0 -89.5 32.5t-36.5 82.5q0 72 80 135l-1 53q-37 -37 -73 -51.5t-86 -14.5q-211 0 -211 270v297h133v-271q0 -103 26 -138.5t79 -35.5q69 0 101 51q21 35 21 133v261h133v-554q-46 -15 -71 -41.5t-25 -49.5q0 -28 8.5 -40.5t29.5 -12.5
q28 0 58 13v-100z" />
    <glyph glyph-name="Wcircumflex" unicode="&#x174;" horiz-adv-x="900" 
d="M898 739l-216 -739h-109l-119 489l-122 -489h-108l-217 739h140l130 -516l126 516h100l124 -516l131 516h140zM653 806h-145l-53 64l-54 -64h-147l147 138h107z" />
    <glyph glyph-name="wcircumflex" unicode="&#x175;" horiz-adv-x="800" 
d="M785 554l-200 -554h-83l-105 359l-107 -359h-82l-198 554h143l99 -338l93 338h106l91 -338l101 338h142zM598 631h-145l-53 64l-54 -64h-147l147 138h107z" />
    <glyph glyph-name="Ycircumflex" unicode="&#x176;" horiz-adv-x="620" 
d="M626 739l-243 -466v-273h-137v273l-243 466h148l164 -340l163 340h148zM515 806h-145l-53 64l-54 -64h-147l147 138h107z" />
    <glyph glyph-name="ycircumflex" unicode="&#x177;" horiz-adv-x="580" 
d="M568 554l-320 -739h-143l104 237l-203 502h152l123 -359l134 359h153zM487 631h-145l-53 64l-54 -64h-147l147 138h107z" />
    <glyph glyph-name="Ydieresis" unicode="&#x178;" horiz-adv-x="620" 
d="M626 739l-243 -466v-273h-137v273l-243 466h148l164 -340l163 340h148zM272 809h-133v133h133v-133zM482 809h-133v133h133v-133z" />
    <glyph glyph-name="Zacute" unicode="&#x179;" horiz-adv-x="500" 
d="M480 0h-462v116l280 492h-265v131h428v-123l-278 -485h297v-131zM432 899l-227 -120l-51 78l224 134z" />
    <glyph glyph-name="zacute" unicode="&#x17a;" horiz-adv-x="460" 
d="M442 0h-422v119l244 316h-216v119h375v-119l-244 -316h263v-119zM421 724l-227 -120l-51 78l224 134z" />
    <glyph glyph-name="Zdotaccent" unicode="&#x17b;" horiz-adv-x="500" 
d="M480 0h-462v116l280 492h-265v131h428v-123l-278 -485h297v-131zM314 809h-133v133h133v-133z" />
    <glyph glyph-name="zdotaccent" unicode="&#x17c;" horiz-adv-x="460" 
d="M442 0h-422v119l244 316h-216v119h375v-119l-244 -316h263v-119zM303 634h-133v133h133v-133z" />
    <glyph glyph-name="Zcaron" unicode="&#x17d;" horiz-adv-x="500" 
d="M480 0h-462v116l280 492h-265v131h428v-123l-278 -485h297v-131zM447 944l-147 -138h-107l-145 138h145l53 -64l54 64h147z" />
    <glyph glyph-name="zcaron" unicode="&#x17e;" horiz-adv-x="460" 
d="M442 0h-422v119l244 316h-216v119h375v-119l-244 -316h263v-119zM436 769l-147 -138h-107l-145 138h145l53 -64l54 64h147z" />
    <glyph glyph-name="longs" unicode="&#x17f;" horiz-adv-x="280" 
d="M274 611h-13q-39 0 -54 -14.5t-16 -52.5v-544h-133v433h-48v111h48q9 92 44 133q51 62 139 62q17 0 33 -2v-126z" />
    <glyph glyph-name="Ereversed" unicode="&#x18e;" horiz-adv-x="520" 
d="M465 0h-397v131h260v172h-249v131h249v174h-260v131h397v-739z" />
    <glyph glyph-name="florin" unicode="&#x192;" horiz-adv-x="560" 
d="M494 820l-20 -117h-9q-45 0 -66.5 -26t-34.5 -92h92l-19 -115h-93l-62 -364q-15 -85 -30.5 -125t-44.5 -68q-65 -62 -165 -62q-28 0 -59 7l20 116q20 -4 33 -4q55 0 80 29.5t42 128.5l60 342h-94l19 115h94l5 26q13 58 23 83.5t32 52.5q62 76 168 76q13 0 29 -3z" />
    <glyph glyph-name="Ohorn" unicode="&#x1a0;" horiz-adv-x="859" 
d="M827 739q0 -109 -73 -187q46 -86 46 -182q0 -162 -110 -272.5t-271 -110.5q-163 0 -276 111t-113 271q0 162 112.5 272.5t277.5 110.5q81 0 153 -32.5t125 -89.5q34 42 34 109h95zM662 368q0 106 -70.5 179t-173.5 73q-107 0 -178.5 -72t-71.5 -179q0 -105 72.5 -177.5
t177.5 -72.5t174.5 71t69.5 178z" />
    <glyph glyph-name="ohorn" unicode="&#x1a1;" horiz-adv-x="722" 
d="M693 554q0 -119 -86 -198q12 -39 12 -83q0 -117 -87 -201.5t-208 -84.5q-122 0 -208 85t-86 205q0 119 86 204.5t207 85.5q74 0 137.5 -32.5t104.5 -89.5q33 43 33 109h95zM485 277q0 69 -47 118.5t-114 49.5q-65 0 -112.5 -49t-47.5 -117q0 -71 47 -120.5t114 -49.5
q66 0 113 49t47 119z" />
    <glyph glyph-name="Uhorn" unicode="&#x1af;" horiz-adv-x="748" 
d="M724 739q0 -91 -46 -154t-111 -95v-219q0 -122 -50 -189q-33 -44 -86.5 -69.5t-113.5 -25.5q-65 0 -121 29.5t-88 80.5q-40 64 -40 174v468h137v-468q0 -71 18 -102q31 -50 95 -50q63 0 94 50q18 31 18 102v468h137v-139q62 50 62 139h95z" />
    <glyph glyph-name="uhorn" unicode="&#x1b0;" horiz-adv-x="729" 
d="M703 554q0 -90 -45.5 -153.5t-110.5 -94.5v-306h-123v53q-37 -37 -73 -51.5t-86 -14.5q-112 0 -169 82q-23 35 -32.5 76.5t-9.5 111.5v297h133v-271q0 -105 27 -139q26 -35 78 -35q71 0 101 51q21 31 21 133v261h133v-138q61 50 61 138h95z" />
    <glyph glyph-name="Acaron" unicode="&#x1cd;" horiz-adv-x="740" 
d="M733 0h-151l-79 191h-263l-82 -191h-151l308 739h108zM448 322l-79 224l-79 -224h158zM569 944l-147 -138h-107l-145 138h145l53 -64l54 64h147z" />
    <glyph glyph-name="acaron" unicode="&#x1ce;" horiz-adv-x="660" 
d="M615 0h-122v72q-40 -45 -83 -65t-101 -20q-121 0 -200 81.5t-79 206.5q0 127 79.5 209.5t202.5 82.5q115 0 181 -87v74h122v-554zM489 273q0 76 -46 124t-117 48t-116.5 -48.5t-45.5 -124.5q0 -73 45.5 -118t118.5 -45q74 0 117.5 46.5t43.5 117.5zM530 769l-147 -138
h-107l-145 138h145l53 -64l54 64h147z" />
    <glyph glyph-name="Icaron" unicode="&#x1cf;" horiz-adv-x="280" 
d="M205 0h-137v739h137v-739zM337 944l-147 -138h-107l-145 138h145l53 -64l54 64h147z" />
    <glyph glyph-name="icaron" unicode="&#x1d0;" horiz-adv-x="240" 
d="M187 0h-133v554h133v-554zM321 769l-147 -138h-107l-145 138h145l53 -64l54 64h147z" />
    <glyph glyph-name="Ocaron" unicode="&#x1d1;" horiz-adv-x="840" 
d="M800 370q0 -162 -110 -272.5t-271 -110.5q-163 0 -276 111t-113 271q0 162 112.5 272.5t277.5 110.5q158 0 269 -112t111 -270zM662 368q0 106 -70.5 179t-173.5 73q-107 0 -178.5 -72t-71.5 -179q0 -105 72.5 -177.5t177.5 -72.5t174.5 71t69.5 178zM620 944l-147 -138
h-107l-145 138h145l53 -64l54 64h147z" />
    <glyph glyph-name="ocaron" unicode="&#x1d2;" 
d="M619 273q0 -117 -87 -201.5t-208 -84.5q-122 0 -208 85t-86 205q0 119 86 204.5t207 85.5q125 0 210.5 -85t85.5 -209zM485 277q0 69 -47 118.5t-114 49.5q-65 0 -112.5 -49t-47.5 -117q0 -71 47 -120.5t114 -49.5q66 0 113 49t47 119zM523 769l-147 -138h-107l-145 138
h145l53 -64l54 64h147z" />
    <glyph glyph-name="Ucaron" unicode="&#x1d3;" 
d="M567 271q0 -138 -68.5 -211t-181.5 -73q-112 0 -180.5 73.5t-68.5 210.5v468h137v-468q0 -82 28.5 -117t84.5 -35q55 0 83.5 34.5t28.5 117.5v468h137v-468zM518 944l-147 -138h-107l-145 138h145l53 -64l54 64h147z" />
    <glyph glyph-name="ucaron" unicode="&#x1d4;" horiz-adv-x="600" 
d="M547 0h-123v53q-37 -37 -73 -51.5t-86 -14.5q-211 0 -211 270v297h133v-271q0 -103 26 -138.5t79 -35.5q69 0 101 51q21 35 21 133v261h133v-554zM501 769l-147 -138h-107l-145 138h145l53 -64l54 64h147z" />
    <glyph glyph-name="Udieresisacute" unicode="&#x1d7;" 
d="M567 271q0 -138 -68.5 -211t-181.5 -73q-112 0 -180.5 73.5t-68.5 210.5v468h137v-468q0 -82 28.5 -117t84.5 -35q55 0 83.5 34.5t28.5 117.5v468h137v-468zM275 809h-133v133h133v-133zM485 809h-133v133h133v-133zM503 1102l-227 -120l-51 78l224 134z" />
    <glyph glyph-name="udieresisacute" unicode="&#x1d8;" horiz-adv-x="600" 
d="M547 0h-123v53q-37 -37 -73 -51.5t-86 -14.5q-211 0 -211 270v297h133v-271q0 -103 26 -138.5t79 -35.5q69 0 101 51q21 35 21 133v261h133v-554zM258 634h-133v133h133v-133zM468 634h-133v133h133v-133zM486 923l-227 -120l-51 78l224 134z" />
    <glyph glyph-name="Udieresiscaron" unicode="&#x1d9;" 
d="M567 271q0 -138 -68.5 -211t-181.5 -73q-112 0 -180.5 73.5t-68.5 210.5v468h137v-468q0 -82 28.5 -117t84.5 -35q55 0 83.5 34.5t28.5 117.5v468h137v-468zM275 809h-133v133h133v-133zM485 809h-133v133h133v-133zM518 1147l-147 -138h-107l-145 138h145l53 -64l54 64
h147z" />
    <glyph glyph-name="udieresiscaron" unicode="&#x1da;" horiz-adv-x="600" 
d="M547 0h-123v53q-37 -37 -73 -51.5t-86 -14.5q-211 0 -211 270v297h133v-271q0 -103 26 -138.5t79 -35.5q69 0 101 51q21 35 21 133v261h133v-554zM258 634h-133v133h133v-133zM468 634h-133v133h133v-133zM501 968l-147 -138h-107l-145 138h145l53 -64l54 64h147z" />
    <glyph glyph-name="Udieresisgrave" unicode="&#x1db;" 
d="M567 271q0 -138 -68.5 -211t-181.5 -73q-112 0 -180.5 73.5t-68.5 210.5v468h137v-468q0 -82 28.5 -117t84.5 -35q55 0 83.5 34.5t28.5 117.5v468h137v-468zM275 809h-133v133h133v-133zM485 809h-133v133h133v-133zM411 1060l-51 -78l-227 120l54 92z" />
    <glyph glyph-name="udieresisgrave" unicode="&#x1dc;" horiz-adv-x="600" 
d="M547 0h-123v53q-37 -37 -73 -51.5t-86 -14.5q-211 0 -211 270v297h133v-271q0 -103 26 -138.5t79 -35.5q69 0 101 51q21 35 21 133v261h133v-554zM258 634h-133v133h133v-133zM468 634h-133v133h133v-133zM394 881l-51 -78l-227 120l54 92z" />
    <glyph glyph-name="eturned" unicode="&#x1dd;" 
d="M608 279q0 -122 -85 -207t-207 -85q-124 0 -205 84.5t-81 213.5q0 27 5 51h429q-12 50 -53 79.5t-100 29.5q-41 0 -68.5 -12.5t-53.5 -42.5h-145q27 82 101.5 129.5t162.5 47.5q127 0 213.5 -83t86.5 -205zM468 219h-307q13 -53 52.5 -81.5t100.5 -28.5q121 0 154 110z
" />
    <glyph glyph-name="Gcaron" unicode="&#x1e6;" horiz-adv-x="840" 
d="M818 359q0 -152 -112 -262t-274 -110q-170 0 -286 111t-116 273q0 159 113.5 270t275.5 111q121 0 223 -65t138 -165h-161q-70 98 -203 98q-108 0 -178 -72.5t-70 -178.5t73.5 -178t182.5 -72q73 0 130 34t87 96h-306v128h483v-18zM619 944l-147 -138h-107l-145 138h145
l53 -64l54 64h147z" />
    <glyph glyph-name="gcaron" unicode="&#x1e7;" horiz-adv-x="660" 
d="M611 105q0 -326 -287 -326q-102 0 -176.5 46.5t-108.5 129.5h151q29 -32 60.5 -45.5t78.5 -13.5q148 0 155 177q-39 -46 -81.5 -66t-100.5 -20q-119 0 -195.5 83t-76.5 211q0 123 77.5 204.5t195.5 81.5q120 0 181 -83v70h127v-449zM478 275q0 76 -44.5 123t-115.5 47
q-70 0 -112 -46.5t-42 -123.5q0 -76 42.5 -121t113.5 -45t114.5 45.5t43.5 120.5zM503 769l-147 -138h-107l-145 138h145l53 -64l54 64h147z" />
    <glyph glyph-name="Oogonek" unicode="&#x1ea;" horiz-adv-x="840" 
d="M800 370q0 -112 -55 -202.5t-149 -138.5q-29 -15 -44 -24t-36.5 -25t-31.5 -33.5t-10 -37.5q0 -28 8.5 -40.5t29.5 -12.5q28 0 58 13v-100q-47 -19 -76 -19q-53 0 -89.5 32.5t-36.5 82.5q0 64 65 122h-14q-163 0 -276 111t-113 271q0 162 112.5 272.5t277.5 110.5
q158 0 269 -112t111 -270zM662 368q0 106 -70.5 179t-173.5 73q-107 0 -178.5 -72t-71.5 -179q0 -105 72.5 -177.5t177.5 -72.5t174.5 71t69.5 178z" />
    <glyph glyph-name="oogonek" unicode="&#x1eb;" 
d="M619 273q0 -74 -38 -139t-102 -104q-47 -28 -74 -55.5t-27 -65.5q0 -28 8.5 -40.5t29.5 -12.5q28 0 58 13v-100q-47 -19 -76 -19q-53 0 -89.5 32.5t-36.5 82.5q0 64 65 122h-13q-122 0 -208 85t-86 205q0 119 86 204.5t207 85.5q125 0 210.5 -85t85.5 -209zM485 277
q0 69 -47 118.5t-114 49.5q-65 0 -112.5 -49t-47.5 -117q0 -71 47 -120.5t114 -49.5q66 0 113 49t47 119z" />
    <glyph glyph-name="jcaron" unicode="&#x1f0;" horiz-adv-x="260" 
d="M205 37q0 -109 -50.5 -165.5t-137.5 -56.5v129q37 7 46 22t9 74v514h133v-517zM339 769l-147 -138h-107l-145 138h145l53 -64l54 64h147z" />
    <glyph glyph-name="Gacute" unicode="&#x1f4;" horiz-adv-x="840" 
d="M818 359q0 -152 -112 -262t-274 -110q-170 0 -286 111t-116 273q0 159 113.5 270t275.5 111q121 0 223 -65t138 -165h-161q-70 98 -203 98q-108 0 -178 -72.5t-70 -178.5t73.5 -178t182.5 -72q73 0 130 34t87 96h-306v128h483v-18zM604 899l-227 -120l-51 78l224 134z
" />
    <glyph glyph-name="gacute" unicode="&#x1f5;" horiz-adv-x="660" 
d="M611 105q0 -326 -287 -326q-102 0 -176.5 46.5t-108.5 129.5h151q29 -32 60.5 -45.5t78.5 -13.5q148 0 155 177q-39 -46 -81.5 -66t-100.5 -20q-119 0 -195.5 83t-76.5 211q0 123 77.5 204.5t195.5 81.5q120 0 181 -83v70h127v-449zM478 275q0 76 -44.5 123t-115.5 47
q-70 0 -112 -46.5t-42 -123.5q0 -76 42.5 -121t113.5 -45t114.5 45.5t43.5 120.5zM488 724l-227 -120l-51 78l224 134z" />
    <glyph glyph-name="Aringacute" unicode="&#x1fa;" horiz-adv-x="740" 
d="M733 0h-151l-79 191h-263l-82 -191h-151l308 739h108zM448 322l-79 224l-79 -224h158zM554 1141l-227 -120l-51 78l224 134zM482 888q0 -47 -33 -80t-80 -33t-80 33t-33 80t33 80t81 33q46 0 79 -33t33 -80zM409 888q0 16 -11.5 28t-28.5 12t-28.5 -12t-11.5 -28
t11.5 -28t28.5 -12t28.5 12t11.5 28z" />
    <glyph glyph-name="aringacute" unicode="&#x1fb;" horiz-adv-x="660" 
d="M615 0h-122v72q-40 -45 -83 -65t-101 -20q-121 0 -200 81.5t-79 206.5q0 127 79.5 209.5t202.5 82.5q115 0 181 -87v74h122v-554zM489 273q0 76 -46 124t-117 48t-116.5 -48.5t-45.5 -124.5q0 -73 45.5 -118t118.5 -45q74 0 117.5 46.5t43.5 117.5zM515 956l-227 -120
l-51 78l224 134zM443 703q0 -47 -33 -80t-80 -33t-80 33t-33 80t33 80t81 33q46 0 79 -33t33 -80zM370 703q0 17 -12 28.5t-28 11.5t-28 -11.5t-12 -28.5t12 -28.5t28 -11.5t28 11.5t12 28.5z" />
    <glyph glyph-name="AEacute" unicode="&#x1fc;" horiz-adv-x="900" 
d="M843 0h-355v191h-194l-112 -191h-165l487 739h339v-131h-218v-174h207v-131h-207v-172h218v-131zM488 322v191l-115 -191h115zM742 899l-227 -120l-51 78l224 134z" />
    <glyph glyph-name="aeacute" unicode="&#x1fd;" horiz-adv-x="1080" 
d="M1051 288q0 -30 -9 -69h-428q17 -52 58.5 -81t97.5 -29q71 0 117 55h145q-25 -76 -98 -126.5t-158 -50.5q-106 0 -169 73v-60h-122v60q-34 -40 -71 -56.5t-94 -16.5q-125 0 -207.5 82t-82.5 206t83 208t205 84q102 0 167 -68v55h122v-55q67 68 167 68q116 0 196.5 -81
t80.5 -198zM481 276q0 72 -45.5 120.5t-112.5 48.5t-113 -48t-46 -117q0 -74 45.5 -122.5t115.5 -48.5q67 0 111.5 48t44.5 119zM911 337q-29 108 -150 108q-116 0 -154 -108h304zM725 724l-227 -120l-51 78l224 134z" />
    <glyph glyph-name="Oslashacute" unicode="&#x1fe;" horiz-adv-x="840" 
d="M803 370q0 -162 -110.5 -272.5t-271.5 -110.5q-88 0 -168 36l-60 -88l-96 65l59 87q-60 54 -93 128.5t-33 154.5q0 159 112.5 270.5t273.5 111.5q85 0 165 -35l62 92l95 -66l-61 -90q126 -115 126 -283zM665 368q0 97 -64 172l-272 -405q45 -16 91 -16q105 0 175 71
t70 178zM505 605q-43 15 -89 15q-104 0 -176 -72.5t-72 -177.5q0 -95 65 -169zM605 899l-227 -120l-51 78l224 134z" />
    <glyph glyph-name="oslashacute" unicode="&#x1ff;" horiz-adv-x="660" 
d="M620 277q0 -120 -86 -205t-208 -85q-66 0 -126 28l-56 -82l-85 57l57 84q-86 81 -86 203q0 120 87 205t209 85q56 0 109 -21l52 77l86 -58l-50 -73q97 -89 97 -215zM363 440q-19 5 -38 5q-66 0 -113.5 -49t-47.5 -118q0 -50 27 -93zM486 276q0 59 -36 107l-179 -264
q27 -10 54 -10q67 0 114 49t47 118zM515 724l-227 -120l-51 78l224 134z" />
    <glyph glyph-name="Adblgrave" unicode="&#x200;" horiz-adv-x="740" 
d="M733 0h-151l-79 191h-263l-82 -191h-151l308 739h108zM448 322l-79 224l-79 -224h158zM555 848l-50 -69l-222 132l62 80zM292 848l-51 -69l-221 132l61 80z" />
    <glyph glyph-name="adblgrave" unicode="&#x201;" horiz-adv-x="660" 
d="M615 0h-122v72q-40 -45 -83 -65t-101 -20q-121 0 -200 81.5t-79 206.5q0 127 79.5 209.5t202.5 82.5q115 0 181 -87v74h122v-554zM489 273q0 76 -46 124t-117 48t-116.5 -48.5t-45.5 -124.5q0 -73 45.5 -118t118.5 -45q74 0 117.5 46.5t43.5 117.5zM516 663l-50 -69
l-222 132l62 80zM253 663l-51 -69l-221 132l61 80z" />
    <glyph glyph-name="Edblgrave" unicode="&#x204;" horiz-adv-x="520" 
d="M465 0h-397v739h397v-131h-260v-174h249v-131h-249v-172h260v-131zM453 848l-50 -69l-222 132l62 80zM190 848l-51 -69l-221 132l61 80z" />
    <glyph glyph-name="edblgrave" unicode="&#x205;" 
d="M608 269q0 -27 -5 -51h-429q12 -50 53 -79.5t100 -29.5q41 0 68.5 12.5t53.5 42.5h145q-27 -82 -101.5 -129.5t-162.5 -47.5q-127 0 -213.5 83t-86.5 205t85 207t207 85q124 0 205 -84.5t81 -213.5zM477 335q-13 53 -52.5 81.5t-100.5 28.5q-121 0 -154 -110h307z
M508 663l-50 -69l-222 132l62 80zM245 663l-51 -69l-221 132l61 80z" />
    <glyph glyph-name="Idblgrave" unicode="&#x208;" horiz-adv-x="280" 
d="M205 0h-137v739h137v-739zM323 848l-50 -69l-222 132l62 80zM60 848l-51 -69l-221 132l61 80z" />
    <glyph glyph-name="idblgrave" unicode="&#x209;" horiz-adv-x="240" 
d="M187 0h-133v554h133v-554zM307 663l-50 -69l-222 132l62 80zM44 663l-51 -69l-221 132l61 80z" />
    <glyph glyph-name="Odblgrave" unicode="&#x20c;" horiz-adv-x="840" 
d="M800 370q0 -162 -110 -272.5t-271 -110.5q-163 0 -276 111t-113 271q0 162 112.5 272.5t277.5 110.5q158 0 269 -112t111 -270zM662 368q0 106 -70.5 179t-173.5 73q-107 0 -178.5 -72t-71.5 -179q0 -105 72.5 -177.5t177.5 -72.5t174.5 71t69.5 178zM606 848l-50 -69
l-222 132l62 80zM343 848l-51 -69l-221 132l61 80z" />
    <glyph glyph-name="odblgrave" unicode="&#x20d;" 
d="M619 273q0 -117 -87 -201.5t-208 -84.5q-122 0 -208 85t-86 205q0 119 86 204.5t207 85.5q125 0 210.5 -85t85.5 -209zM485 277q0 69 -47 118.5t-114 49.5q-65 0 -112.5 -49t-47.5 -117q0 -71 47 -120.5t114 -49.5q66 0 113 49t47 119zM509 663l-50 -69l-222 132l62 80z
M246 663l-51 -69l-221 132l61 80z" />
    <glyph glyph-name="Rdblgrave" unicode="&#x210;" horiz-adv-x="580" 
d="M568 0h-169l-194 283v-283h-137v739h213q76 0 121 -12t81 -43q78 -66 78 -182q0 -181 -193 -229zM423 498q0 55 -33 82.5t-124 27.5h-61v-222h67q79 0 115 26.5t36 85.5zM476 848l-50 -69l-222 132l62 80zM213 848l-51 -69l-221 132l61 80z" />
    <glyph glyph-name="rdblgrave" unicode="&#x211;" horiz-adv-x="320" 
d="M306 439q-119 -3 -119 -131v-308h-133v554h122v-54q26 38 51.5 52.5t68.5 14.5h10v-128zM362 663l-50 -69l-222 132l62 80zM99 663l-51 -69l-221 132l61 80z" />
    <glyph glyph-name="Udblgrave" unicode="&#x214;" 
d="M567 271q0 -138 -68.5 -211t-181.5 -73q-112 0 -180.5 73.5t-68.5 210.5v468h137v-468q0 -82 28.5 -117t84.5 -35q55 0 83.5 34.5t28.5 117.5v468h137v-468zM504 848l-50 -69l-222 132l62 80zM241 848l-51 -69l-221 132l61 80z" />
    <glyph glyph-name="udblgrave" unicode="&#x215;" horiz-adv-x="600" 
d="M547 0h-123v53q-37 -37 -73 -51.5t-86 -14.5q-211 0 -211 270v297h133v-271q0 -103 26 -138.5t79 -35.5q69 0 101 51q21 35 21 133v261h133v-554zM487 663l-50 -69l-222 132l62 80zM224 663l-51 -69l-221 132l61 80z" />
    <glyph glyph-name="uni0218" unicode="&#x218;" horiz-adv-x="520" 
d="M493 224q0 -100 -68 -168.5t-168 -68.5q-99 0 -166.5 60.5t-76.5 163.5h143q9 -92 100 -92q44 0 72 25t28 65q0 49 -34 75q-16 12 -34 20t-94 37q-74 28 -114 79.5t-40 121.5q0 88 63 149t152 61q91 0 152.5 -57t66.5 -153h-142q-3 38 -23 58t-55 20q-34 0 -55 -21
t-21 -54q0 -41 41 -67q11 -7 82 -33q108 -40 149.5 -91t41.5 -130zM314 -53l-58 -192h-104l58 192h104z" />
    <glyph glyph-name="uni0219" unicode="&#x219;" horiz-adv-x="440" 
d="M420 176q0 -79 -57.5 -134t-140.5 -55q-85 0 -139 47.5t-64 141.5h134q10 -35 27.5 -51t46.5 -16q26 0 43 15.5t17 38.5q0 25 -15 37t-79 34q-83 28 -118.5 65.5t-35.5 98.5q0 71 53.5 120t130.5 49q73 0 125.5 -45t56.5 -121h-130q-9 44 -52 44q-22 0 -36.5 -13.5
t-14.5 -33.5q0 -22 13 -30t81 -30q86 -27 120 -63.5t34 -98.5zM281 -53l-58 -192h-104l58 192h104z" />
    <glyph glyph-name="uni021A" unicode="&#x21a;" horiz-adv-x="420" 
d="M418 608h-137v-608h-137v608h-137v131h411v-131zM270 -53l-58 -192h-104l58 192h104z" />
    <glyph glyph-name="uni021B" unicode="&#x21b;" horiz-adv-x="300" 
d="M287 433h-80v-433h-133v433h-65v121h65v185h133v-185h80v-121zM198 -53l-58 -192h-104l58 192h104z" />
    <glyph glyph-name="uni0237" unicode="&#x237;" horiz-adv-x="260" 
d="M205 37q0 -109 -50.5 -165.5t-137.5 -56.5v129q37 7 46 22t9 74v514h133v-517z" />
    <glyph glyph-name="ereversed" unicode="&#x258;" 
d="M608 275q0 -122 -86.5 -205t-213.5 -83q-88 0 -162.5 47.5t-101.5 129.5h145q26 -30 53.5 -42.5t68.5 -12.5q59 0 100 29.5t53 79.5h-429q-5 24 -5 51q0 129 81 213.5t205 84.5q122 0 207 -85t85 -207zM468 335q-33 110 -154 110q-61 0 -100.5 -28.5t-52.5 -81.5h307z
" />
    <glyph glyph-name="schwa" unicode="&#x259;" 
d="M608 279q0 -122 -85 -207t-207 -85q-124 0 -205 84.5t-81 213.5q0 27 5 51h429q-12 50 -53 79.5t-100 29.5q-41 0 -68.5 -12.5t-53.5 -42.5h-145q27 82 101.5 129.5t162.5 47.5q127 0 213.5 -83t86.5 -205zM468 219h-307q13 -53 52.5 -81.5t100.5 -28.5q121 0 154 110z
" />
    <glyph glyph-name="ringhalfright" unicode="&#x2be;" horiz-adv-x="505" 
d="M451 518q0 -85 -58.5 -143t-144.5 -58q-67 0 -119 36t-74 101q-1 1 -1 3q0 8 8 8h100q5 0 7 -4q26 -47 79 -47q43 0 70.5 29.5t27.5 74.5t-28.5 74.5t-71.5 29.5q-49 0 -77 -45q-1 -3 -7 -3h-100q-8 0 -8 8l1 2q24 65 74 100.5t117 35.5q85 0 145 -59t60 -143z" />
    <glyph glyph-name="ringhalfleft" unicode="&#x2bf;" horiz-adv-x="505" 
d="M451 455l-1 -2q-24 -65 -74 -100.5t-117 -35.5q-85 0 -145 59t-60 143q0 85 58.5 143t144.5 58q67 0 119 -36t74 -101q1 -1 1 -3q0 -8 -8 -8h-100q-5 0 -7 4q-26 47 -79 47q-43 0 -70.5 -29.5t-27.5 -74.5t28.5 -74.5t71.5 -29.5q49 0 77 45q2 3 7 3h100q8 0 8 -8z" />
    <glyph glyph-name="circumflex" unicode="&#x2c6;" horiz-adv-x="540" 
d="M470 631h-145l-53 64l-54 -64h-147l147 138h107z" />
    <glyph glyph-name="caron" unicode="&#x2c7;" horiz-adv-x="540" 
d="M470 769l-147 -138h-107l-145 138h145l53 -64l54 64h147z" />
    <glyph glyph-name="breve" unicode="&#x2d8;" horiz-adv-x="480" 
d="M404 770q-2 -62 -47.5 -100.5t-116.5 -38.5q-74 0 -118 36.5t-48 102.5h98q18 -43 68 -43q54 0 62 43h102z" />
    <glyph glyph-name="dotaccent" unicode="&#x2d9;" horiz-adv-x="280" 
d="M207 634h-133v133h133v-133z" />
    <glyph glyph-name="ring" unicode="&#x2da;" horiz-adv-x="360" 
d="M293 710q0 -47 -33 -80t-80 -33t-80 33t-33 80t33 80t81 33q46 0 79 -33t33 -80zM220 710q0 16 -12 28t-28 12t-28 -12t-12 -28t12 -28t28 -12t28 12t12 28z" />
    <glyph glyph-name="ogonek" unicode="&#x2db;" horiz-adv-x="340" 
d="M276 -231q-47 -19 -76 -19q-53 0 -89.5 32.5t-36.5 82.5q0 72 80 135h122q-46 -15 -71 -41.5t-25 -49.5q0 -28 8.5 -40.5t29.5 -12.5q28 0 58 13v-100z" />
    <glyph glyph-name="tilde" unicode="&#x2dc;" horiz-adv-x="480" 
d="M405 687q-45 -55 -94 -55q-13 0 -58.5 12.5t-54.5 12.5q-18 0 -29.5 -4t-40.5 -21l-54 80q26 26 49 36.5t54 10.5q12 0 52.5 -12.5t54.5 -12.5q37 0 67 34z" />
    <glyph glyph-name="hungarumlaut" unicode="&#x2dd;" horiz-adv-x="700" 
d="M436 726l-222 -132l-50 69l210 143zM699 726l-221 -132l-51 69l211 143z" />
    <glyph glyph-name="uni0300" unicode="&#x300;" horiz-adv-x="0" 
d="M-237 682l-51 -78l-227 120l54 92z" />
    <glyph glyph-name="uni0301" unicode="&#x301;" horiz-adv-x="0" 
d="M-145 724l-227 -120l-51 78l224 134z" />
    <glyph glyph-name="uni0302" unicode="&#x302;" horiz-adv-x="0" 
d="M-130 631h-145l-53 64l-54 -64h-147l147 138h107z" />
    <glyph glyph-name="uni0303" unicode="&#x303;" horiz-adv-x="0" 
d="M-165 687q-45 -55 -94 -55q-13 0 -58.5 12.5t-54.5 12.5q-18 0 -29.5 -4t-40.5 -21l-54 80q26 26 49 36.5t54 10.5q12 0 52.5 -12.5t54.5 -12.5q37 0 67 34z" />
    <glyph glyph-name="uni0304" unicode="&#x304;" horiz-adv-x="0" 
d="M-189 650h-277v100h277v-100z" />
    <glyph glyph-name="uni0306" unicode="&#x306;" horiz-adv-x="0" 
d="M-166 770q-2 -62 -47.5 -100.5t-116.5 -38.5q-74 0 -118 36.5t-48 102.5h98q18 -43 68 -43q54 0 62 43h102z" />
    <glyph glyph-name="uni0307" unicode="&#x307;" horiz-adv-x="0" 
d="M-263 634h-133v133h133v-133z" />
    <glyph glyph-name="uni0308" unicode="&#x308;" horiz-adv-x="0" 
d="M-373 634h-133v133h133v-133zM-163 634h-133v133h133v-133z" />
    <glyph glyph-name="uni0309" unicode="&#x309;" horiz-adv-x="0" 
d="M-201 764q0 -46 -58 -85q-21 -14 -26.5 -26.5t-5.5 -44.5h-85v15q0 40 14 62.5t55 50.5q21 15 21 30q0 14 -12.5 23t-32.5 9q-36 0 -43 -44h-84q3 61 39 90t90 29t91 -31.5t37 -77.5z" />
    <glyph glyph-name="uni030A" unicode="&#x30a;" horiz-adv-x="0" 
d="M-217 710q0 -47 -33 -80t-80 -33t-80 33t-33 80t33 80t81 33q46 0 79 -33t33 -80zM-290 710q0 16 -12 28t-28 12t-28 -12t-12 -28t12 -28t28 -12t28 12t12 28z" />
    <glyph glyph-name="uni030B" unicode="&#x30b;" horiz-adv-x="0" 
d="M-244 726l-222 -132l-50 69l210 143zM19 726l-221 -132l-51 69l211 143z" />
    <glyph glyph-name="uni030C" unicode="&#x30c;" horiz-adv-x="0" 
d="M-130 769l-147 -138h-107l-145 138h145l53 -64l54 64h147z" />
    <glyph glyph-name="uni030F" unicode="&#x30f;" horiz-adv-x="0" 
d="M-144 663l-50 -69l-222 132l62 80zM-407 663l-51 -69l-221 132l61 80z" />
    <glyph glyph-name="uni0311" unicode="&#x311;" horiz-adv-x="0" 
d="M-166 631h-98q-18 43 -68 43q-54 0 -62 -43h-102q2 62 47.5 100.5t116.5 38.5q74 0 118 -36.5t48 -102.5z" />
    <glyph glyph-name="uni0323" unicode="&#x323;" horiz-adv-x="0" 
d="M-263 -212h-133v133h133v-133z" />
    <glyph glyph-name="uni0326" unicode="&#x326;" horiz-adv-x="0" 
d="M-272 -53l-58 -192h-104l58 192h104z" />
    <glyph glyph-name="uni032E" unicode="&#x32e;" horiz-adv-x="0" 
d="M-165 -76q-2 -62 -47.5 -100.5t-116.5 -38.5q-74 0 -118 36.5t-48 102.5h98q18 -43 68 -43q54 0 62 43h102z" />
    <glyph glyph-name="uni032F" unicode="&#x32f;" horiz-adv-x="0" 
d="M-165 -215h-98q-18 43 -68 43q-54 0 -62 -43h-102q2 62 47.5 100.5t116.5 38.5q74 0 118 -36.5t48 -102.5z" />
    <glyph glyph-name="uni0330" unicode="&#x330;" horiz-adv-x="0" 
d="M-165 -159q-45 -55 -94 -55q-13 0 -58.5 12.5t-54.5 12.5q-18 0 -29.5 -4t-40.5 -21l-54 80q26 26 49 36.5t54 10.5q12 0 52.5 -12.5t54.5 -12.5q37 0 67 34z" />
    <glyph glyph-name="uni0331" unicode="&#x331;" horiz-adv-x="0" 
d="M-189 -196h-277v100h277v-100z" />
    <glyph glyph-name="uni0332" unicode="&#x332;" horiz-adv-x="0" 
d="M-189 -196h-277v100h277v-100z" />
    <glyph glyph-name="Alpha" unicode="&#x391;" horiz-adv-x="740" 
d="M733 0h-151l-79 191h-263l-82 -191h-151l308 739h108zM448 322l-79 224l-79 -224h158z" />
    <glyph glyph-name="Beta" unicode="&#x392;" horiz-adv-x="580" 
d="M548 220q0 -104 -71.5 -162t-211.5 -58h-197v739h152q83 0 125 -7.5t75 -28.5q84 -54 84 -161q0 -52 -19 -84t-63 -55q69 -29 97.5 -72t28.5 -111zM410 223q0 97 -140 97h-65v-189h68q72 0 104.5 22t32.5 70zM367 530q0 75 -106 75h-56v-151h44q62 0 90 18t28 58z" />
    <glyph glyph-name="Gamma" unicode="&#x393;" horiz-adv-x="480" 
d="M444 608h-239v-608h-137v739h376v-131z" />
    <glyph glyph-name="Delta" unicode="&#x394;" horiz-adv-x="647" 
d="M652 -1h-655l271 684h114zM455 134l-130 361l-131 -361h261z" />
    <glyph glyph-name="Epsilon" unicode="&#x395;" horiz-adv-x="520" 
d="M465 0h-397v739h397v-131h-260v-174h249v-131h-249v-172h260v-131z" />
    <glyph glyph-name="Zeta" unicode="&#x396;" horiz-adv-x="500" 
d="M480 0h-462v116l280 492h-265v131h428v-123l-278 -485h297v-131z" />
    <glyph glyph-name="Eta" unicode="&#x397;" horiz-adv-x="680" 
d="M606 0h-137v310h-264v-310h-137v739h137v-298h264v298h137v-739z" />
    <glyph glyph-name="Theta" unicode="&#x398;" horiz-adv-x="840" 
d="M800 370q0 -162 -110 -272.5t-271 -110.5q-163 0 -276 111t-113 271q0 162 112.5 272.5t277.5 110.5q158 0 269 -112t111 -270zM662 368q0 106 -70.5 179t-173.5 73q-107 0 -178.5 -72t-71.5 -179q0 -105 72.5 -177.5t177.5 -72.5t174.5 71t69.5 178zM555 301h-280v138
h280v-138z" />
    <glyph glyph-name="Iota" unicode="&#x399;" horiz-adv-x="280" 
d="M205 0h-137v739h137v-739z" />
    <glyph glyph-name="Kappa" unicode="&#x39a;" horiz-adv-x="620" 
d="M599 0h-165l-229 325v-325h-137v739h137v-319l229 319h165l-278 -363z" />
    <glyph glyph-name="Lambda" unicode="&#x39b;" horiz-adv-x="740" 
d="M733 0h-151l-213 546l-211 -546h-151l308 739h108z" />
    <glyph glyph-name="Mu" unicode="&#x39c;" horiz-adv-x="900" 
d="M840 0h-137v554l-193 -554h-112l-193 554v-554h-137v739h188l199 -560l197 560h188v-739z" />
    <glyph glyph-name="Nu" unicode="&#x39d;" horiz-adv-x="740" 
d="M667 0h-153l-309 537v-537h-137v739h156l306 -538v538h137v-739z" />
    <glyph glyph-name="Xi" unicode="&#x39e;" horiz-adv-x="680" 
d="M611 601h-542v138h542v-138zM473 301h-266v138h266v-138zM611 0h-542v138h542v-138z" />
    <glyph glyph-name="Omicron" unicode="&#x39f;" horiz-adv-x="840" 
d="M800 370q0 -162 -110 -272.5t-271 -110.5q-163 0 -276 111t-113 271q0 162 112.5 272.5t277.5 110.5q158 0 269 -112t111 -270zM662 368q0 106 -70.5 179t-173.5 73q-107 0 -178.5 -72t-71.5 -179q0 -105 72.5 -177.5t177.5 -72.5t174.5 71t69.5 178z" />
    <glyph glyph-name="Pi" unicode="&#x3a0;" horiz-adv-x="629" 
d="M568 0h-141v549h-230v-549h-141v684h512v-684z" />
    <glyph glyph-name="Rho" unicode="&#x3a1;" horiz-adv-x="560" 
d="M540 511q0 -64 -26 -116.5t-71 -80.5q-31 -19 -73 -26t-121 -7h-44v-281h-137v739h183q132 0 189 -34q100 -61 100 -194zM402 509q0 57 -34.5 78t-116.5 21h-46v-196h40q89 0 123 23.5t34 73.5z" />
    <glyph glyph-name="Sigma" unicode="&#x3a3;" horiz-adv-x="462" 
d="M451 0h-441l-1 115l138 236l-126 211v122h410v-135h-240l118 -198l-129 -217h271v-134z" />
    <glyph glyph-name="Tau" unicode="&#x3a4;" horiz-adv-x="420" 
d="M418 608h-137v-608h-137v608h-137v131h411v-131z" />
    <glyph glyph-name="Upsilon" unicode="&#x3a5;" horiz-adv-x="620" 
d="M626 739l-243 -466v-273h-137v273l-243 466h148l164 -340l163 340h148z" />
    <glyph glyph-name="Phi" unicode="&#x3a6;" horiz-adv-x="698" 
d="M644 370q0 -93 -64.5 -160.5t-162.5 -86.5l1 -123h-137v123q-98 19 -162.5 86.5t-64.5 160.5q0 92 65 159.5t162 86.5v123h137v-123q97 -19 161.5 -86.5t64.5 -159.5zM281 265l-1 209q-40 -13 -64 -40t-24 -64t24.5 -64.5t64.5 -40.5zM506 370q0 37 -24 64t-64 40v-209
q40 13 64 40.5t24 64.5z" />
    <glyph glyph-name="Chi" unicode="&#x3a7;" horiz-adv-x="680" 
d="M676 0h-159l-177 255l-172 -255h-163l254 368l-254 371h163l172 -258l177 258h159l-256 -371z" />
    <glyph glyph-name="Psi" unicode="&#x3a8;" horiz-adv-x="852" 
d="M798 554q0 -128 -87 -223t-216 -117v-214h-137v214q-130 22 -217 117t-87 223v185h138v-185q0 -71 47 -125.5t119 -73.5v384h137v-384q72 19 118.5 73.5t46.5 125.5v185h138v-185z" />
    <glyph glyph-name="Omega" unicode="&#x3a9;" horiz-adv-x="771" 
d="M748 339q0 -61 -19.5 -116.5t-55.5 -85.5h59v-138h-249l-15 135q61 27 100.5 81t39.5 124q0 93 -66 158q-64 62 -150 65l1 -2q-101 0 -166.5 -64t-65.5 -158q0 -70 39 -123.5t101 -80.5l-15 -135h-253v138h62q-36 30 -55.5 84.5t-19.5 116.5q0 150 107 254
q107 105 257 105q151 0 257 -104q107 -104 107 -254z" />
    <glyph glyph-name="alpha" unicode="&#x3b1;" horiz-adv-x="738" 
d="M684 554q-24 -41 -37.5 -92t-24.5 -116t-20 -99q8 -37 15 -59t22 -42.5t34 -20.5v-138q-93 0 -154 99q-84 -99 -202 -99q-109 0 -186 76.5t-77 185.5q0 129 74.5 223.5t188.5 94.5q103 0 179 -87q10 40 28 74h160zM459 252q-42 177 -142 177q-58 0 -91.5 -53.5
t-33.5 -126.5q0 -52 36.5 -88t88.5 -36q49 0 85.5 35.5t56.5 91.5z" />
    <glyph glyph-name="beta" unicode="&#x3b2;" horiz-adv-x="540" 
d="M486 214q0 -96 -60 -165.5t-148 -69.5q-40 0 -86 13q-2 -102 -23 -181h-144q29 100 29 189v554q0 87 66 146.5t158 59.5q83 0 139 -66.5t56 -157.5q0 -89 -62 -153q75 -67 75 -169zM348 214q0 43 -24.5 74t-62.5 31v122q33 0 53.5 28.5t20.5 66.5q0 35 -15 60.5t-42 25.5
q-35 0 -60.5 -19t-25.5 -49v-429q32 -8 86 -8q32 0 51 29t19 68z" />
    <glyph glyph-name="gamma" unicode="&#x3b3;" horiz-adv-x="531" 
d="M585 554l-226 -567v-161h-138v174q0 293 -247 554h190q109 -115 159 -285l114 285h148z" />
    <glyph glyph-name="delta" unicode="&#x3b4;" horiz-adv-x="697" 
d="M643 273q0 -117 -87 -201.5t-208 -84.5q-122 0 -208 85t-86 205q0 90 52 164t135 106l-124 86l35 113h384v-124h-183q90 -53 170 -111q56 -40 88 -102.5t32 -135.5zM509 277q0 69 -47 118.5t-114 49.5q-65 0 -112.5 -49t-47.5 -117q0 -71 47 -120.5t114 -49.5
q66 0 113 49t47 119z" />
    <glyph glyph-name="epsilon" unicode="&#x3b5;" horiz-adv-x="571" 
d="M521 -6q-127 -41 -219 -41q-101 0 -174.5 64t-73.5 159q0 76 69 124q-56 42 -56 110q0 81 62 136.5t147 55.5q94 0 232 -44l-38 -118q-76 24 -194 24q-28 0 -49.5 -15t-21.5 -39q0 -12 7 -20.5t22 -14t29 -8.5t39 -4t39.5 -1.5t41.5 -0.5v-124q-29 0 -45 -0.5t-42.5 -2
t-41.5 -5.5t-31 -10t-23.5 -17t-7.5 -26q0 -38 32.5 -61.5t77.5 -23.5q117 0 181 21z" />
    <glyph glyph-name="zeta" unicode="&#x3b6;" horiz-adv-x="469" 
d="M415 615h-51q-82 -56 -127 -146t-45 -192q0 -33 1 -50.5t5.5 -41.5t16.5 -35.5t31 -11.5h24q63 0 100.5 -56.5t37.5 -133.5v-122h-124v122q0 52 -14 52h-24q-89 0 -140.5 82.5t-51.5 194.5q0 188 126 338h-126v124h361v-124z" />
    <glyph glyph-name="eta" unicode="&#x3b7;" horiz-adv-x="600" 
d="M546 -200h-133v471q0 104 -25.5 139t-80.5 35q-66 0 -98 -51q-22 -35 -22 -133v-261h-133v554h123v-53q69 66 156 66q118 0 173 -80q22 -32 31 -74t9 -116v-497z" />
    <glyph glyph-name="theta" unicode="&#x3b8;" horiz-adv-x="554" 
d="M500 342q0 -92 -23 -170.5t-75 -131.5t-125 -53t-125 53t-75 131.5t-23 170.5q0 80 11 148.5t35.5 129.5t69.5 96.5t107 35.5t107 -35.5t69.5 -96.5t35.5 -129.5t11 -148.5zM361 411q-1 60 -7 100.5t-25 71.5t-52 31t-52 -31t-25 -71.5t-7 -100.5h168zM361 273h-168
q3 -69 21 -108.5t63 -39.5t63 39.5t21 108.5z" />
    <glyph glyph-name="iota" unicode="&#x3b9;" horiz-adv-x="415" 
d="M361 -20q-104 0 -178.5 70.5t-74.5 171.5v332h138v-332q0 -44 34 -74t81 -30v-138z" />
    <glyph glyph-name="kappa" unicode="&#x3ba;" horiz-adv-x="580" 
d="M555 0h-179l-189 259v-259h-133v554h133v-261l177 261h159l-198 -271z" />
    <glyph glyph-name="lambda" unicode="&#x3bb;" horiz-adv-x="650" 
d="M596 0h-146l-103 310l-141 -310h-152l229 502l-10 30q-12 36 -41 59.5t-65 23.5v138q81 0 145.5 -49.5t91.5 -127.5z" />
    <glyph glyph-name="mu.greek" unicode="&#x3bc;" horiz-adv-x="576" 
d="M522 0h-138v22q-42 -28 -96 -28t-96 28v-196h-138v728h138v-330q24 -92 96 -92t96 92v330h138v-554z" />
    <glyph glyph-name="nu" unicode="&#x3bd;" horiz-adv-x="512" 
d="M458 369q0 -117 -54 -220.5t-151 -170.5l-106 41l-122 535h142l87 -385q66 89 66 200q0 90 -14 185h140q12 -92 12 -185z" />
    <glyph glyph-name="xi" unicode="&#x3be;" horiz-adv-x="470" 
d="M416 615h-159q-52 -21 -52 -69q0 -68 142 -68v-125q-63 0 -109 -30t-46 -81q0 -104 54 -104h25q63 0 100.5 -56.5t37.5 -133.5v-122h-124v122q0 52 -14 52h-25q-84 0 -138 72t-54 170q0 102 87 169q-74 53 -74 135q0 38 15 69h-28v124h362v-124z" />
    <glyph glyph-name="omicron" unicode="&#x3bf;" 
d="M619 273q0 -117 -87 -201.5t-208 -84.5q-122 0 -208 85t-86 205q0 119 86 204.5t207 85.5q125 0 210.5 -85t85.5 -209zM485 277q0 69 -47 118.5t-114 49.5q-65 0 -112.5 -49t-47.5 -117q0 -71 47 -120.5t114 -49.5q66 0 113 49t47 119z" />
    <glyph glyph-name="pi" unicode="&#x3c0;" horiz-adv-x="708" 
d="M654 416h-78v-416h-138v416h-60v-416h-138v416h-13q-16 0 -25.5 -14t-9.5 -33h-138q0 76 50 130.5t123 54.5h427v-138z" />
    <glyph glyph-name="rho" unicode="&#x3c1;" horiz-adv-x="604" 
d="M550 277q0 -118 -71 -204t-177 -86q-60 0 -110 29v-190h-138v451q0 118 71 204t177 86t177 -86t71 -204zM412 277q0 61 -30 106.5t-80 45.5t-80 -45.5t-30 -106.5v-113q39 -39 110 -39q50 0 80 45.5t30 106.5z" />
    <glyph glyph-name="uni03C2" unicode="&#x3c2;" horiz-adv-x="541" 
d="M480 -174h-124v122q0 21 -10.5 36.5t-27.5 15.5h-33q-101 0 -166 84.5t-65 199.5q0 114 65.5 198.5t165.5 84.5q78 0 134 -55t61 -135l-124 -7q-1 26 -22 42.5t-49 16.5q-45 0 -69 -43t-24 -102q0 -60 24 -103t69 -43h33q70 0 116 -56.5t46 -133.5v-122z" />
    <glyph glyph-name="sigma" unicode="&#x3c3;" horiz-adv-x="732" 
d="M705 504q-58 -26 -130 -41q68 -81 68 -190q0 -117 -87 -201.5t-208 -84.5q-122 0 -208 85t-86 205q0 119 86 204.5t207 85.5q39 0 73 -9q99 15 229 72zM509 277q0 69 -47 118.5t-114 49.5q-65 0 -112.5 -49t-47.5 -117q0 -71 47 -120.5t114 -49.5q66 0 113 49t47 119z
" />
    <glyph glyph-name="tau" unicode="&#x3c4;" horiz-adv-x="390" 
d="M336 -14q-89 0 -149.5 70t-60.5 166v194h-72v138h282v-138h-72v-194q0 -40 20 -69t52 -29v-138z" />
    <glyph glyph-name="upsilon" unicode="&#x3c5;" horiz-adv-x="550" 
d="M496 250q0 -107 -67.5 -185t-166.5 -78q-85 0 -146.5 57.5t-61.5 140.5v369h138v-369q0 -26 21 -43t49 -17q43 0 69.5 37.5t26.5 87.5q0 145 -27 304h140q25 -147 25 -304z" />
    <glyph glyph-name="phi" unicode="&#x3c6;" horiz-adv-x="797" 
d="M743 277q0 -109 -79 -186.5t-197 -97.5l1 -167h-138v167q-118 19 -197.5 97t-79.5 187q0 90 48 166.5t129 116.5l60 -124q-45 -23 -72 -65.5t-27 -93.5q0 -54 38.5 -91.5t99.5 -52.5l1 117q0 82 21.5 152.5t69.5 117.5t115 47q95 0 151 -86.5t56 -203.5zM605 277
q0 32 -2 55t-9 47t-21.5 37t-36.5 13q-24 0 -39 -14.5t-20.5 -46t-7 -54t-1.5 -64.5v-117q60 15 98.5 53t38.5 91z" />
    <glyph glyph-name="chi" unicode="&#x3c7;" horiz-adv-x="637" 
d="M584 -174h-156l-109 213l-109 -213h-156l187 364l-187 364h156l109 -213l109 213h156l-187 -364z" />
    <glyph glyph-name="psi" unicode="&#x3c8;" horiz-adv-x="797" 
d="M743 185q0 -88 -77.5 -136t-197.5 -59v-164h-138v164q-120 11 -197.5 59t-77.5 136v369h138v-369q0 -22 20.5 -35t48 -17.5t68.5 -6.5v613h138v-613q41 2 68.5 6.5t48 17.5t20.5 35v369h138v-369z" />
    <glyph glyph-name="omega" unicode="&#x3c9;" horiz-adv-x="771" 
d="M717 305q0 -83 -20.5 -153t-67 -117.5t-112.5 -47.5q-84 0 -132 71q-51 -71 -131 -71q-66 0 -112.5 47.5t-67 117.5t-20.5 153q0 121 48 249h134q-44 -112 -44 -249q0 -28 0.5 -42.5t2 -39.5t5.5 -39t10.5 -29.5t17.5 -22.5t26 -7q38 0 52 34t17 94q-6 46 -6 116h138
q0 -37 0.5 -56.5t2 -53.5t5.5 -53.5t10.5 -40.5t17.5 -30.5t26 -9.5t26 7t17.5 22.5t10.5 29.5t5.5 39t2 39.5t0.5 42.5q0 137 -44 249h134q48 -128 48 -249z" />
    <glyph glyph-name="uni03D1" unicode="&#x3d1;" horiz-adv-x="619" 
d="M565 381l-69 1v-160q0 -97 -64 -166t-157 -69t-157 69t-64 166v147h138v-147q0 -39 23.5 -68t59.5 -29t59.5 29t23.5 68v167q-63 6 -111 19t-89 35.5t-62.5 60t-21.5 87.5q0 86 58.5 148t142.5 62q94 0 157.5 -73t63.5 -174v-48l69 -1v-124zM358 554q0 50 -22 86.5
t-61 36.5q-33 0 -55 -25.5t-22 -60.5q0 -65 160 -79v42z" />
    <glyph glyph-name="uni03D5" unicode="&#x3d5;" 
d="M619 273q0 -99 -64 -176.5t-161 -101.5v-169h-138v169q-98 23 -162 101.5t-64 180.5q0 101 64 180t162 102v180h138v-180q99 -23 162 -102t63 -184zM485 277q0 49 -25 89.5t-66 61.5v-303q41 21 66 61.5t25 90.5zM256 125v304q-41 -21 -66.5 -61t-25.5 -89q0 -51 25 -92
t67 -62z" />
    <glyph glyph-name="uni03D6" unicode="&#x3d6;" horiz-adv-x="771" 
d="M717 305q0 -83 -20.5 -153t-67 -117.5t-112.5 -47.5q-84 0 -132 71q-51 -71 -131 -71q-66 0 -112.5 47.5t-67 117.5t-20.5 153q0 121 48 249h134q-44 -112 -44 -249q0 -28 0.5 -42.5t2 -39.5t5.5 -39t10.5 -29.5t17.5 -22.5t26 -7q38 0 52 34t17 94q-6 46 -6 116h138
q0 -37 0.5 -56.5t2 -53.5t5.5 -53.5t10.5 -40.5t17.5 -30.5t26 -9.5t26 7t17.5 22.5t10.5 29.5t5.5 39t2 39.5t0.5 42.5q0 56 -3 100t-13 93t-26.5 81t-46.5 53t-71 21q-123 0 -223 -60l-63 107q133 78 286 78q74 0 133 -40.5t94 -108.5t53 -151t18 -173z" />
    <glyph glyph-name="uni03F1" unicode="&#x3f1;" horiz-adv-x="697" 
d="M643 273q0 -117 -87 -201.5t-208 -84.5q-68 0 -130 30q20 -51 54 -66q38 -17 118.5 -17.5t116.5 -13.5q57 -20 93 -66.5t36 -103.5h-124q0 37 -47 54q-38 13 -124.5 8t-123.5 13q-33 14 -59 38t-43 49.5t-29 63.5t-18 68.5t-9.5 77t-4 77t-0.5 78.5q0 119 86 204.5
t207 85.5q125 0 210.5 -85t85.5 -209zM509 277q0 69 -47 118.5t-114 49.5q-65 0 -112.5 -49t-47.5 -117q0 -71 47 -120.5t114 -49.5q66 0 113 49t47 119z" />
    <glyph glyph-name="uni03F5" unicode="&#x3f5;" 
d="M582 139q-39 -73 -105.5 -112.5t-150.5 -39.5q-123 0 -209.5 84.5t-86.5 205.5q0 122 84.5 206t207.5 84q83 0 151.5 -39.5t107.5 -111.5h-167q-37 29 -92 29q-53 0 -92.5 -29t-55.5 -77h253v-124h-252q17 -48 57 -77t93 -29t89 29z" />
    <glyph glyph-name="baht" unicode="&#xe3f;" horiz-adv-x="580" 
d="M548 220q0 -89 -54 -145.5t-159 -70.5v-87h-98v83h-169v739h152h17v83h98v-89q48 -7 85 -30q84 -54 84 -161q0 -52 -19 -84t-63 -55q69 -29 97.5 -72t28.5 -111zM410 223q0 97 -140 97h-65v-189h68q72 0 104.5 22t32.5 70zM367 530q0 75 -106 75h-56v-151h44q62 0 90 18
t28 58z" />
    <glyph glyph-name="Ddotbelow" unicode="&#x1e0c;" horiz-adv-x="700" 
d="M660 368q0 -112 -48 -198.5t-133 -128.5q-82 -41 -239 -41h-172v739h169q174 0 262 -53q77 -46 119 -129.5t42 -188.5zM522 368q0 71 -30 127t-83 83q-59 30 -177 30h-27v-477h30q121 0 180 33q49 27 78 82t29 122zM347 -212h-133v133h133v-133z" />
    <glyph glyph-name="ddotbelow" unicode="&#x1e0d;" horiz-adv-x="660" 
d="M613 0h-122v72q-75 -85 -183 -85q-118 0 -198 84t-80 207q0 124 80.5 210t196.5 86q110 0 173 -69v234h133v-739zM490 280q0 73 -47 122.5t-117 49.5q-68 0 -115 -48.5t-47 -119.5q0 -74 47.5 -124.5t117.5 -50.5q68 0 114.5 49.5t46.5 121.5zM397 -212h-133v133h133
v-133z" />
    <glyph glyph-name="Dlinebelow" unicode="&#x1e0e;" horiz-adv-x="700" 
d="M660 368q0 -112 -48 -198.5t-133 -128.5q-82 -41 -239 -41h-172v739h169q174 0 262 -53q77 -46 119 -129.5t42 -188.5zM522 368q0 71 -30 127t-83 83q-59 30 -177 30h-27v-477h30q121 0 180 33q49 27 78 82t29 122zM421 -196h-277v100h277v-100z" />
    <glyph glyph-name="dlinebelow" unicode="&#x1e0f;" horiz-adv-x="660" 
d="M613 0h-122v72q-75 -85 -183 -85q-118 0 -198 84t-80 207q0 124 80.5 210t196.5 86q110 0 173 -69v234h133v-739zM490 280q0 73 -47 122.5t-117 49.5q-68 0 -115 -48.5t-47 -119.5q0 -74 47.5 -124.5t117.5 -50.5q68 0 114.5 49.5t46.5 121.5zM471 -196h-277v100h277
v-100z" />
    <glyph glyph-name="Hdotbelow" unicode="&#x1e24;" horiz-adv-x="680" 
d="M606 0h-137v310h-264v-310h-137v739h137v-298h264v298h137v-739zM404 -212h-133v133h133v-133z" />
    <glyph glyph-name="hdotbelow" unicode="&#x1e25;" horiz-adv-x="600" 
d="M545 0h-133v283q0 87 -25 124.5t-83 37.5q-59 0 -88 -37.5t-29 -126.5v-281h-133v739h133v-223q58 52 141 52q217 0 217 -255v-313zM367 -212h-133v133h133v-133z" />
    <glyph glyph-name="Hdieresis" unicode="&#x1e26;" horiz-adv-x="680" 
d="M606 0h-137v310h-264v-310h-137v739h137v-298h264v298h137v-739zM294 809h-133v133h133v-133zM504 809h-133v133h133v-133z" />
    <glyph glyph-name="hdieresis" unicode="&#x1e27;" horiz-adv-x="600" 
d="M545 0h-133v283q0 87 -25 124.5t-83 37.5q-59 0 -88 -37.5t-29 -126.5v-281h-133v739h133v-223q58 52 141 52q217 0 217 -255v-313zM257 809h-133v133h133v-133zM467 809h-133v133h133v-133z" />
    <glyph glyph-name="Hbrevebelow" unicode="&#x1e2a;" horiz-adv-x="680" 
d="M606 0h-137v310h-264v-310h-137v739h137v-298h264v298h137v-739zM502 -76q-2 -62 -47.5 -100.5t-116.5 -38.5q-74 0 -118 36.5t-48 102.5h98q18 -43 68 -43q54 0 62 43h102z" />
    <glyph glyph-name="hbrevebelow" unicode="&#x1e2b;" horiz-adv-x="600" 
d="M545 0h-133v283q0 87 -25 124.5t-83 37.5q-59 0 -88 -37.5t-29 -126.5v-281h-133v739h133v-223q58 52 141 52q217 0 217 -255v-313zM465 -76q-2 -62 -47.5 -100.5t-116.5 -38.5q-74 0 -118 36.5t-48 102.5h98q18 -43 68 -43q54 0 62 43h102z" />
    <glyph glyph-name="Idieresisacute" unicode="&#x1e2e;" horiz-adv-x="280" 
d="M205 0h-137v739h137v-739zM94 809h-133v133h133v-133zM304 809h-133v133h133v-133zM322 1102l-227 -120l-51 78l224 134z" />
    <glyph glyph-name="idieresisacute" unicode="&#x1e2f;" horiz-adv-x="240" 
d="M187 0h-133v554h133v-554zM78 634h-133v133h133v-133zM288 634h-133v133h133v-133zM306 923l-227 -120l-51 78l224 134z" />
    <glyph glyph-name="Ldotbelow" unicode="&#x1e36;" horiz-adv-x="440" 
d="M431 0h-363v739h137v-608h226v-131zM317 -212h-133v133h133v-133z" />
    <glyph glyph-name="ldotbelow" unicode="&#x1e37;" horiz-adv-x="240" 
d="M187 0h-133v739h133v-739zM188 -212h-133v133h133v-133z" />
    <glyph glyph-name="Ldotbelowmacron" unicode="&#x1e38;" horiz-adv-x="440" 
d="M431 0h-363v739h137v-608h226v-131zM317 -212h-133v133h133v-133zM278 825h-277v100h277v-100z" />
    <glyph glyph-name="ldotbelowmacron" unicode="&#x1e39;" horiz-adv-x="240" 
d="M187 0h-133v739h133v-739zM188 -212h-133v133h133v-133zM262 825h-277v100h277v-100z" />
    <glyph glyph-name="Mdotbelow" unicode="&#x1e42;" horiz-adv-x="900" 
d="M840 0h-137v554l-193 -554h-112l-193 554v-554h-137v739h188l199 -560l197 560h188v-739zM517 -212h-133v133h133v-133z" />
    <glyph glyph-name="mdotbelow" unicode="&#x1e43;" horiz-adv-x="940" 
d="M885 0h-133v304q0 78 -26.5 109.5t-77.5 31.5q-58 0 -85 -38t-27 -134v-273h-133v304q0 78 -26.5 109.5t-81.5 31.5q-59 0 -83.5 -37.5t-24.5 -134.5v-273h-133v554h122v-52q29 35 62 50t82 15q109 0 163 -86q65 86 178 86q224 0 224 -247v-320zM537 -212h-133v133h133
v-133z" />
    <glyph glyph-name="Ndotaccent" unicode="&#x1e44;" horiz-adv-x="740" 
d="M667 0h-153l-309 537v-537h-137v739h156l306 -538v538h137v-739zM435 809h-133v133h133v-133z" />
    <glyph glyph-name="ndotaccent" unicode="&#x1e45;" horiz-adv-x="600" 
d="M546 0h-133v271q0 104 -25.5 139t-80.5 35q-66 0 -98 -51q-22 -35 -22 -133v-261h-133v554h123v-53q69 66 156 66q118 0 173 -80q22 -32 31 -74t9 -116v-297zM367 634h-133v133h133v-133z" />
    <glyph glyph-name="Ndotbelow" unicode="&#x1e46;" horiz-adv-x="740" 
d="M667 0h-153l-309 537v-537h-137v739h156l306 -538v538h137v-739zM435 -212h-133v133h133v-133z" />
    <glyph glyph-name="ndotbelow" unicode="&#x1e47;" horiz-adv-x="600" 
d="M546 0h-133v271q0 104 -25.5 139t-80.5 35q-66 0 -98 -51q-22 -35 -22 -133v-261h-133v554h123v-53q69 66 156 66q118 0 173 -80q22 -32 31 -74t9 -116v-297zM367 -212h-133v133h133v-133z" />
    <glyph glyph-name="Rdotaccent" unicode="&#x1e58;" horiz-adv-x="580" 
d="M568 0h-169l-194 283v-283h-137v739h213q76 0 121 -12t81 -43q78 -66 78 -182q0 -181 -193 -229zM423 498q0 55 -33 82.5t-124 27.5h-61v-222h67q79 0 115 26.5t36 85.5zM357 809h-133v133h133v-133z" />
    <glyph glyph-name="rdotaccent" unicode="&#x1e59;" horiz-adv-x="320" 
d="M306 439q-119 -3 -119 -131v-308h-133v554h122v-54q26 38 51.5 52.5t68.5 14.5h10v-128zM243 634h-133v133h133v-133z" />
    <glyph glyph-name="Rdotbelow" unicode="&#x1e5a;" horiz-adv-x="580" 
d="M568 0h-169l-194 283v-283h-137v739h213q76 0 121 -12t81 -43q78 -66 78 -182q0 -181 -193 -229zM423 498q0 55 -33 82.5t-124 27.5h-61v-222h67q79 0 115 26.5t36 85.5zM357 -212h-133v133h133v-133z" />
    <glyph glyph-name="rdotbelow" unicode="&#x1e5b;" horiz-adv-x="320" 
d="M306 439q-119 -3 -119 -131v-308h-133v554h122v-54q26 38 51.5 52.5t68.5 14.5h10v-128zM188 -212h-133v133h133v-133z" />
    <glyph glyph-name="Rdotbelowmacron" unicode="&#x1e5c;" horiz-adv-x="580" 
d="M568 0h-169l-194 283v-283h-137v739h213q76 0 121 -12t81 -43q78 -66 78 -182q0 -181 -193 -229zM423 498q0 55 -33 82.5t-124 27.5h-61v-222h67q79 0 115 26.5t36 85.5zM357 -212h-133v133h133v-133zM431 825h-277v100h277v-100z" />
    <glyph glyph-name="rdotbelowmacron" unicode="&#x1e5d;" horiz-adv-x="320" 
d="M306 439q-119 -3 -119 -131v-308h-133v554h122v-54q26 38 51.5 52.5t68.5 14.5h10v-128zM188 -212h-133v133h133v-133zM317 663h-277v100h277v-100z" />
    <glyph glyph-name="Sdotbelow" unicode="&#x1e62;" horiz-adv-x="520" 
d="M493 224q0 -100 -68 -168.5t-168 -68.5q-99 0 -166.5 60.5t-76.5 163.5h143q9 -92 100 -92q44 0 72 25t28 65q0 49 -34 75q-16 12 -34 20t-94 37q-74 28 -114 79.5t-40 121.5q0 88 63 149t152 61q91 0 152.5 -57t66.5 -153h-142q-3 38 -23 58t-55 20q-34 0 -55 -21
t-21 -54q0 -41 41 -67q11 -7 82 -33q108 -40 149.5 -91t41.5 -130zM323 -212h-133v133h133v-133z" />
    <glyph glyph-name="sdotbelow" unicode="&#x1e63;" horiz-adv-x="440" 
d="M420 176q0 -79 -57.5 -134t-140.5 -55q-85 0 -139 47.5t-64 141.5h134q10 -35 27.5 -51t46.5 -16q26 0 43 15.5t17 38.5q0 25 -15 37t-79 34q-83 28 -118.5 65.5t-35.5 98.5q0 71 53.5 120t130.5 49q73 0 125.5 -45t56.5 -121h-130q-9 44 -52 44q-22 0 -36.5 -13.5
t-14.5 -33.5q0 -22 13 -30t81 -30q86 -27 120 -63.5t34 -98.5zM290 -212h-133v133h133v-133z" />
    <glyph glyph-name="Tdotbelow" unicode="&#x1e6c;" horiz-adv-x="420" 
d="M418 608h-137v-608h-137v608h-137v131h411v-131zM280 -212h-133v133h133v-133z" />
    <glyph glyph-name="tdotbelow" unicode="&#x1e6d;" horiz-adv-x="300" 
d="M287 433h-80v-433h-133v433h-65v121h65v185h133v-185h80v-121zM208 -212h-133v133h133v-133z" />
    <glyph glyph-name="Tlinebelow" unicode="&#x1e6e;" horiz-adv-x="420" 
d="M418 608h-137v-608h-137v608h-137v131h411v-131zM354 -196h-277v100h277v-100z" />
    <glyph glyph-name="tlinebelow" unicode="&#x1e6f;" horiz-adv-x="300" 
d="M287 433h-80v-433h-133v433h-65v121h65v185h133v-185h80v-121zM282 -196h-277v100h277v-100z" />
    <glyph glyph-name="Wgrave" unicode="&#x1e80;" horiz-adv-x="900" 
d="M898 739l-216 -739h-109l-119 489l-122 -489h-108l-217 739h140l130 -516l126 516h100l124 -516l131 516h140zM546 857l-51 -78l-227 120l54 92z" />
    <glyph glyph-name="wgrave" unicode="&#x1e81;" horiz-adv-x="800" 
d="M785 554l-200 -554h-83l-105 359l-107 -359h-82l-198 554h143l99 -338l93 338h106l91 -338l101 338h142zM491 682l-51 -78l-227 120l54 92z" />
    <glyph glyph-name="Wacute" unicode="&#x1e82;" horiz-adv-x="900" 
d="M898 739l-216 -739h-109l-119 489l-122 -489h-108l-217 739h140l130 -516l126 516h100l124 -516l131 516h140zM638 899l-227 -120l-51 78l224 134z" />
    <glyph glyph-name="wacute" unicode="&#x1e83;" horiz-adv-x="800" 
d="M785 554l-200 -554h-83l-105 359l-107 -359h-82l-198 554h143l99 -338l93 338h106l91 -338l101 338h142zM583 724l-227 -120l-51 78l224 134z" />
    <glyph glyph-name="Wdieresis" unicode="&#x1e84;" horiz-adv-x="900" 
d="M898 739l-216 -739h-109l-119 489l-122 -489h-108l-217 739h140l130 -516l126 516h100l124 -516l131 516h140zM410 809h-133v133h133v-133zM620 809h-133v133h133v-133z" />
    <glyph glyph-name="wdieresis" unicode="&#x1e85;" horiz-adv-x="800" 
d="M785 554l-200 -554h-83l-105 359l-107 -359h-82l-198 554h143l99 -338l93 338h106l91 -338l101 338h142zM355 634h-133v133h133v-133zM565 634h-133v133h133v-133z" />
    <glyph glyph-name="Zdotbelow" unicode="&#x1e92;" horiz-adv-x="500" 
d="M480 0h-462v116l280 492h-265v131h428v-123l-278 -485h297v-131zM314 -212h-133v133h133v-133z" />
    <glyph glyph-name="zdotbelow" unicode="&#x1e93;" horiz-adv-x="460" 
d="M442 0h-422v119l244 316h-216v119h375v-119l-244 -316h263v-119zM303 -212h-133v133h133v-133z" />
    <glyph glyph-name="tdieresis" unicode="&#x1e97;" horiz-adv-x="300" 
d="M287 433h-80v-433h-133v433h-65v121h65v185h133v-185h80v-121zM98 809h-133v133h133v-133zM308 809h-133v133h133v-133z" />
    <glyph glyph-name="Adotbelow" unicode="&#x1ea0;" horiz-adv-x="740" 
d="M733 0h-151l-79 191h-263l-82 -191h-151l308 739h108zM448 322l-79 224l-79 -224h158zM437 -212h-133v133h133v-133z" />
    <glyph glyph-name="adotbelow" unicode="&#x1ea1;" horiz-adv-x="660" 
d="M615 0h-122v72q-40 -45 -83 -65t-101 -20q-121 0 -200 81.5t-79 206.5q0 127 79.5 209.5t202.5 82.5q115 0 181 -87v74h122v-554zM489 273q0 76 -46 124t-117 48t-116.5 -48.5t-45.5 -124.5q0 -73 45.5 -118t118.5 -45q74 0 117.5 46.5t43.5 117.5zM397 -212h-133v133
h133v-133z" />
    <glyph glyph-name="Ahookabove" unicode="&#x1ea2;" horiz-adv-x="740" 
d="M733 0h-151l-79 191h-263l-82 -191h-151l308 739h108zM448 322l-79 224l-79 -224h158zM497 949q0 -46 -58 -85q-21 -14 -26.5 -26.5t-5.5 -44.5h-85v15q0 40 14 62.5t55 50.5q21 15 21 30q0 14 -12.5 23t-32.5 9q-36 0 -43 -44h-84q3 61 39 90t90 29t91 -31.5t37 -77.5z
" />
    <glyph glyph-name="ahookabove" unicode="&#x1ea3;" horiz-adv-x="660" 
d="M615 0h-122v72q-40 -45 -83 -65t-101 -20q-121 0 -200 81.5t-79 206.5q0 127 79.5 209.5t202.5 82.5q115 0 181 -87v74h122v-554zM489 273q0 76 -46 124t-117 48t-116.5 -48.5t-45.5 -124.5q0 -73 45.5 -118t118.5 -45q74 0 117.5 46.5t43.5 117.5zM458 764
q0 -46 -58 -85q-21 -14 -26.5 -26.5t-5.5 -44.5h-85v15q0 40 14 62.5t55 50.5q21 15 21 30q0 14 -12.5 23t-32.5 9q-36 0 -43 -44h-84q3 61 39 90t90 29t91 -31.5t37 -77.5z" />
    <glyph glyph-name="Acircumflexacute" unicode="&#x1ea4;" horiz-adv-x="740" 
d="M733 0h-151l-79 191h-263l-82 -191h-151l308 739h108zM448 322l-79 224l-79 -224h158zM554 1084l-227 -120l-51 78l224 134zM569 806h-145l-53 64l-54 -64h-147l147 138h107z" />
    <glyph glyph-name="acircumflexacute" unicode="&#x1ea5;" horiz-adv-x="660" 
d="M615 0h-122v72q-40 -45 -83 -65t-101 -20q-121 0 -200 81.5t-79 206.5q0 127 79.5 209.5t202.5 82.5q115 0 181 -87v74h122v-554zM489 273q0 76 -46 124t-117 48t-116.5 -48.5t-45.5 -124.5q0 -73 45.5 -118t118.5 -45q74 0 117.5 46.5t43.5 117.5zM515 899l-227 -120
l-51 78l224 134zM530 621h-145l-53 64l-54 -64h-147l147 138h107z" />
    <glyph glyph-name="Acircumflexgrave" unicode="&#x1ea6;" horiz-adv-x="740" 
d="M733 0h-151l-79 191h-263l-82 -191h-151l308 739h108zM448 322l-79 224l-79 -224h158zM462 1042l-51 -78l-227 120l54 92zM569 806h-145l-53 64l-54 -64h-147l147 138h107z" />
    <glyph glyph-name="acircumflexgrave" unicode="&#x1ea7;" horiz-adv-x="660" 
d="M615 0h-122v72q-40 -45 -83 -65t-101 -20q-121 0 -200 81.5t-79 206.5q0 127 79.5 209.5t202.5 82.5q115 0 181 -87v74h122v-554zM489 273q0 76 -46 124t-117 48t-116.5 -48.5t-45.5 -124.5q0 -73 45.5 -118t118.5 -45q74 0 117.5 46.5t43.5 117.5zM423 857l-51 -78
l-227 120l54 92zM530 621h-145l-53 64l-54 -64h-147l147 138h107z" />
    <glyph glyph-name="Acircumflexhookabove" unicode="&#x1ea8;" horiz-adv-x="740" 
d="M733 0h-151l-79 191h-263l-82 -191h-151l308 739h108zM448 322l-79 224l-79 -224h158zM569 1127q0 -46 -58 -85q-21 -14 -26.5 -26.5t-5.5 -44.5h-85v15q0 40 14 62.5t55 50.5q21 15 21 30q0 14 -12.5 23t-32.5 9q-36 0 -43 -44h-84q3 61 39 90t90 29t91 -31.5t37 -77.5z
M569 806h-145l-53 64l-54 -64h-147l147 138h107z" />
    <glyph glyph-name="acircumflexhookabove" unicode="&#x1ea9;" horiz-adv-x="660" 
d="M615 0h-122v72q-40 -45 -83 -65t-101 -20q-121 0 -200 81.5t-79 206.5q0 127 79.5 209.5t202.5 82.5q115 0 181 -87v74h122v-554zM489 273q0 76 -46 124t-117 48t-116.5 -48.5t-45.5 -124.5q0 -73 45.5 -118t118.5 -45q74 0 117.5 46.5t43.5 117.5zM530 942
q0 -46 -58 -85q-21 -14 -26.5 -26.5t-5.5 -44.5h-85v15q0 40 14 62.5t55 50.5q21 15 21 30q0 14 -12.5 23t-32.5 9q-36 0 -43 -44h-84q3 61 39 90t90 29t91 -31.5t37 -77.5zM530 621h-145l-53 64l-54 -64h-147l147 138h107z" />
    <glyph glyph-name="Acircumflextilde" unicode="&#x1eaa;" horiz-adv-x="740" 
d="M733 0h-151l-79 191h-263l-82 -191h-151l308 739h108zM448 322l-79 224l-79 -224h158zM534 1029q-45 -55 -94 -55q-13 0 -58.5 12.5t-54.5 12.5q-18 0 -29.5 -4t-40.5 -21l-54 80q26 26 49 36.5t54 10.5q12 0 52.5 -12.5t54.5 -12.5q37 0 67 34zM569 806h-145l-53 64
l-54 -64h-147l147 138h107z" />
    <glyph glyph-name="acircumflextilde" unicode="&#x1eab;" horiz-adv-x="660" 
d="M615 0h-122v72q-40 -45 -83 -65t-101 -20q-121 0 -200 81.5t-79 206.5q0 127 79.5 209.5t202.5 82.5q115 0 181 -87v74h122v-554zM489 273q0 76 -46 124t-117 48t-116.5 -48.5t-45.5 -124.5q0 -73 45.5 -118t118.5 -45q74 0 117.5 46.5t43.5 117.5zM495 844
q-45 -55 -94 -55q-13 0 -58.5 12.5t-54.5 12.5q-18 0 -29.5 -4t-40.5 -21l-54 80q26 26 49 36.5t54 10.5q12 0 52.5 -12.5t54.5 -12.5q37 0 67 34zM530 621h-145l-53 64l-54 -64h-147l147 138h107z" />
    <glyph glyph-name="Acircumflexdotbelow" unicode="&#x1eac;" horiz-adv-x="740" 
d="M733 0h-151l-79 191h-263l-82 -191h-151l308 739h108zM448 322l-79 224l-79 -224h158zM569 806h-145l-53 64l-54 -64h-147l147 138h107zM437 -212h-133v133h133v-133z" />
    <glyph glyph-name="acircumflexdotbelow" unicode="&#x1ead;" horiz-adv-x="660" 
d="M615 0h-122v72q-40 -45 -83 -65t-101 -20q-121 0 -200 81.5t-79 206.5q0 127 79.5 209.5t202.5 82.5q115 0 181 -87v74h122v-554zM489 273q0 76 -46 124t-117 48t-116.5 -48.5t-45.5 -124.5q0 -73 45.5 -118t118.5 -45q74 0 117.5 46.5t43.5 117.5zM530 631h-145l-53 64
l-54 -64h-147l147 138h107zM397 -212h-133v133h133v-133z" />
    <glyph glyph-name="Abreveacute" unicode="&#x1eae;" horiz-adv-x="740" 
d="M733 0h-151l-79 191h-263l-82 -191h-151l308 739h108zM448 322l-79 224l-79 -224h158zM574 1092l-227 -120l-51 78l224 134zM534 945q-2 -62 -47.5 -100.5t-116.5 -38.5q-74 0 -118 36.5t-48 102.5h98q18 -43 68 -43q54 0 62 43h102z" />
    <glyph glyph-name="abreveacute" unicode="&#x1eaf;" horiz-adv-x="660" 
d="M615 0h-122v72q-40 -45 -83 -65t-101 -20q-121 0 -200 81.5t-79 206.5q0 127 79.5 209.5t202.5 82.5q115 0 181 -87v74h122v-554zM489 273q0 76 -46 124t-117 48t-116.5 -48.5t-45.5 -124.5q0 -73 45.5 -118t118.5 -45q74 0 117.5 46.5t43.5 117.5zM535 907l-227 -120
l-51 78l224 134zM495 760q-2 -62 -47.5 -100.5t-116.5 -38.5q-74 0 -118 36.5t-48 102.5h98q18 -43 68 -43q54 0 62 43h102z" />
    <glyph glyph-name="Abrevegrave" unicode="&#x1eb0;" horiz-adv-x="740" 
d="M733 0h-151l-79 191h-263l-82 -191h-151l308 739h108zM448 322l-79 224l-79 -224h158zM442 1050l-51 -78l-227 120l54 92zM534 945q-2 -62 -47.5 -100.5t-116.5 -38.5q-74 0 -118 36.5t-48 102.5h98q18 -43 68 -43q54 0 62 43h102z" />
    <glyph glyph-name="abrevegrave" unicode="&#x1eb1;" horiz-adv-x="660" 
d="M615 0h-122v72q-40 -45 -83 -65t-101 -20q-121 0 -200 81.5t-79 206.5q0 127 79.5 209.5t202.5 82.5q115 0 181 -87v74h122v-554zM489 273q0 76 -46 124t-117 48t-116.5 -48.5t-45.5 -124.5q0 -73 45.5 -118t118.5 -45q74 0 117.5 46.5t43.5 117.5zM403 865l-51 -78
l-227 120l54 92zM495 760q-2 -62 -47.5 -100.5t-116.5 -38.5q-74 0 -118 36.5t-48 102.5h98q18 -43 68 -43q54 0 62 43h102z" />
    <glyph glyph-name="Abrevehookabove" unicode="&#x1eb2;" horiz-adv-x="740" 
d="M733 0h-151l-79 191h-263l-82 -191h-151l308 739h108zM448 322l-79 224l-79 -224h158zM498 1114q0 -46 -58 -85q-21 -14 -26.5 -26.5t-5.5 -44.5h-85v15q0 40 14 62.5t55 50.5q21 15 21 30q0 14 -12.5 23t-32.5 9q-36 0 -43 -44h-84q3 61 39 90t90 29t91 -31.5t37 -77.5z
M534 945q-2 -62 -47.5 -100.5t-116.5 -38.5q-74 0 -118 36.5t-48 102.5h98q18 -43 68 -43q54 0 62 43h102z" />
    <glyph glyph-name="abrevehookabove" unicode="&#x1eb3;" horiz-adv-x="660" 
d="M615 0h-122v72q-40 -45 -83 -65t-101 -20q-121 0 -200 81.5t-79 206.5q0 127 79.5 209.5t202.5 82.5q115 0 181 -87v74h122v-554zM489 273q0 76 -46 124t-117 48t-116.5 -48.5t-45.5 -124.5q0 -73 45.5 -118t118.5 -45q74 0 117.5 46.5t43.5 117.5zM459 929
q0 -46 -58 -85q-21 -14 -26.5 -26.5t-5.5 -44.5h-85v15q0 40 14 62.5t55 50.5q21 15 21 30q0 14 -12.5 23t-32.5 9q-36 0 -43 -44h-84q3 61 39 90t90 29t91 -31.5t37 -77.5zM495 760q-2 -62 -47.5 -100.5t-116.5 -38.5q-74 0 -118 36.5t-48 102.5h98q18 -43 68 -43
q54 0 62 43h102z" />
    <glyph glyph-name="Abrevetilde" unicode="&#x1eb4;" horiz-adv-x="740" 
d="M733 0h-151l-79 191h-263l-82 -191h-151l308 739h108zM448 322l-79 224l-79 -224h158zM534 1036q-45 -55 -94 -55q-13 0 -58.5 12.5t-54.5 12.5q-18 0 -29.5 -4t-40.5 -21l-54 80q26 26 49 36.5t54 10.5q12 0 52.5 -12.5t54.5 -12.5q37 0 67 34zM534 945
q-2 -62 -47.5 -100.5t-116.5 -38.5q-74 0 -118 36.5t-48 102.5h98q18 -43 68 -43q54 0 62 43h102z" />
    <glyph glyph-name="abrevetilde" unicode="&#x1eb5;" horiz-adv-x="660" 
d="M615 0h-122v72q-40 -45 -83 -65t-101 -20q-121 0 -200 81.5t-79 206.5q0 127 79.5 209.5t202.5 82.5q115 0 181 -87v74h122v-554zM489 273q0 76 -46 124t-117 48t-116.5 -48.5t-45.5 -124.5q0 -73 45.5 -118t118.5 -45q74 0 117.5 46.5t43.5 117.5zM495 851
q-45 -55 -94 -55q-13 0 -58.5 12.5t-54.5 12.5q-18 0 -29.5 -4t-40.5 -21l-54 80q26 26 49 36.5t54 10.5q12 0 52.5 -12.5t54.5 -12.5q37 0 67 34zM495 760q-2 -62 -47.5 -100.5t-116.5 -38.5q-74 0 -118 36.5t-48 102.5h98q18 -43 68 -43q54 0 62 43h102z" />
    <glyph glyph-name="Abrevedotbelow" unicode="&#x1eb6;" horiz-adv-x="740" 
d="M733 0h-151l-79 191h-263l-82 -191h-151l308 739h108zM448 322l-79 224l-79 -224h158zM534 945q-2 -62 -47.5 -100.5t-116.5 -38.5q-74 0 -118 36.5t-48 102.5h98q18 -43 68 -43q54 0 62 43h102zM437 -212h-133v133h133v-133z" />
    <glyph glyph-name="abrevedotbelow" unicode="&#x1eb7;" horiz-adv-x="660" 
d="M615 0h-122v72q-40 -45 -83 -65t-101 -20q-121 0 -200 81.5t-79 206.5q0 127 79.5 209.5t202.5 82.5q115 0 181 -87v74h122v-554zM489 273q0 76 -46 124t-117 48t-116.5 -48.5t-45.5 -124.5q0 -73 45.5 -118t118.5 -45q74 0 117.5 46.5t43.5 117.5zM494 770
q-2 -62 -47.5 -100.5t-116.5 -38.5q-74 0 -118 36.5t-48 102.5h98q18 -43 68 -43q54 0 62 43h102zM397 -212h-133v133h133v-133z" />
    <glyph glyph-name="Edotbelow" unicode="&#x1eb8;" horiz-adv-x="520" 
d="M465 0h-397v739h397v-131h-260v-174h249v-131h-249v-172h260v-131zM327 -212h-133v133h133v-133z" />
    <glyph glyph-name="edotbelow" unicode="&#x1eb9;" 
d="M608 269q0 -27 -5 -51h-429q12 -50 53 -79.5t100 -29.5q41 0 68.5 12.5t53.5 42.5h145q-27 -82 -101.5 -129.5t-162.5 -47.5q-127 0 -213.5 83t-86.5 205t85 207t207 85q124 0 205 -84.5t81 -213.5zM477 335q-13 53 -52.5 81.5t-100.5 28.5q-121 0 -154 -110h307z
M389 -212h-133v133h133v-133z" />
    <glyph glyph-name="Ehookabove" unicode="&#x1eba;" horiz-adv-x="520" 
d="M465 0h-397v739h397v-131h-260v-174h249v-131h-249v-172h260v-131zM395 949q0 -46 -58 -85q-21 -14 -26.5 -26.5t-5.5 -44.5h-85v15q0 40 14 62.5t55 50.5q21 15 21 30q0 14 -12.5 23t-32.5 9q-36 0 -43 -44h-84q3 61 39 90t90 29t91 -31.5t37 -77.5z" />
    <glyph glyph-name="ehookabove" unicode="&#x1ebb;" 
d="M608 269q0 -27 -5 -51h-429q12 -50 53 -79.5t100 -29.5q41 0 68.5 12.5t53.5 42.5h145q-27 -82 -101.5 -129.5t-162.5 -47.5q-127 0 -213.5 83t-86.5 205t85 207t207 85q124 0 205 -84.5t81 -213.5zM477 335q-13 53 -52.5 81.5t-100.5 28.5q-121 0 -154 -110h307z
M450 764q0 -46 -58 -85q-21 -14 -26.5 -26.5t-5.5 -44.5h-85v15q0 40 14 62.5t55 50.5q21 15 21 30q0 14 -12.5 23t-32.5 9q-36 0 -43 -44h-84q3 61 39 90t90 29t91 -31.5t37 -77.5z" />
    <glyph glyph-name="Etilde" unicode="&#x1ebc;" horiz-adv-x="520" 
d="M465 0h-397v739h397v-131h-260v-174h249v-131h-249v-172h260v-131zM432 862q-45 -55 -94 -55q-13 0 -58.5 12.5t-54.5 12.5q-18 0 -29.5 -4t-40.5 -21l-54 80q26 26 49 36.5t54 10.5q12 0 52.5 -12.5t54.5 -12.5q37 0 67 34z" />
    <glyph glyph-name="etilde" unicode="&#x1ebd;" 
d="M608 269q0 -27 -5 -51h-429q12 -50 53 -79.5t100 -29.5q41 0 68.5 12.5t53.5 42.5h145q-27 -82 -101.5 -129.5t-162.5 -47.5q-127 0 -213.5 83t-86.5 205t85 207t207 85q124 0 205 -84.5t81 -213.5zM477 335q-13 53 -52.5 81.5t-100.5 28.5q-121 0 -154 -110h307z
M487 687q-45 -55 -94 -55q-13 0 -58.5 12.5t-54.5 12.5q-18 0 -29.5 -4t-40.5 -21l-54 80q26 26 49 36.5t54 10.5q12 0 52.5 -12.5t54.5 -12.5q37 0 67 34z" />
    <glyph glyph-name="Ecircumflexacute" unicode="&#x1ebe;" horiz-adv-x="520" 
d="M465 0h-397v739h397v-131h-260v-174h249v-131h-249v-172h260v-131zM452 1084l-227 -120l-51 78l224 134zM467 806h-145l-53 64l-54 -64h-147l147 138h107z" />
    <glyph glyph-name="ecircumflexacute" unicode="&#x1ebf;" 
d="M608 269q0 -27 -5 -51h-429q12 -50 53 -79.5t100 -29.5q41 0 68.5 12.5t53.5 42.5h145q-27 -82 -101.5 -129.5t-162.5 -47.5q-127 0 -213.5 83t-86.5 205t85 207t207 85q124 0 205 -84.5t81 -213.5zM477 335q-13 53 -52.5 81.5t-100.5 28.5q-121 0 -154 -110h307z
M507 899l-227 -120l-51 78l224 134zM522 621h-145l-53 64l-54 -64h-147l147 138h107z" />
    <glyph glyph-name="Ecircumflexgrave" unicode="&#x1ec0;" horiz-adv-x="520" 
d="M465 0h-397v739h397v-131h-260v-174h249v-131h-249v-172h260v-131zM360 1042l-51 -78l-227 120l54 92zM467 806h-145l-53 64l-54 -64h-147l147 138h107z" />
    <glyph glyph-name="ecircumflexgrave" unicode="&#x1ec1;" 
d="M608 269q0 -27 -5 -51h-429q12 -50 53 -79.5t100 -29.5q41 0 68.5 12.5t53.5 42.5h145q-27 -82 -101.5 -129.5t-162.5 -47.5q-127 0 -213.5 83t-86.5 205t85 207t207 85q124 0 205 -84.5t81 -213.5zM477 335q-13 53 -52.5 81.5t-100.5 28.5q-121 0 -154 -110h307z
M415 857l-51 -78l-227 120l54 92zM522 621h-145l-53 64l-54 -64h-147l147 138h107z" />
    <glyph glyph-name="Ecircumflexhookabove" unicode="&#x1ec2;" horiz-adv-x="520" 
d="M465 0h-397v739h397v-131h-260v-174h249v-131h-249v-172h260v-131zM467 1127q0 -46 -58 -85q-21 -14 -26.5 -26.5t-5.5 -44.5h-85v15q0 40 14 62.5t55 50.5q21 15 21 30q0 14 -12.5 23t-32.5 9q-36 0 -43 -44h-84q3 61 39 90t90 29t91 -31.5t37 -77.5zM467 806h-145
l-53 64l-54 -64h-147l147 138h107z" />
    <glyph glyph-name="ecircumflexhookabove" unicode="&#x1ec3;" 
d="M608 269q0 -27 -5 -51h-429q12 -50 53 -79.5t100 -29.5q41 0 68.5 12.5t53.5 42.5h145q-27 -82 -101.5 -129.5t-162.5 -47.5q-127 0 -213.5 83t-86.5 205t85 207t207 85q124 0 205 -84.5t81 -213.5zM477 335q-13 53 -52.5 81.5t-100.5 28.5q-121 0 -154 -110h307z
M522 942q0 -46 -58 -85q-21 -14 -26.5 -26.5t-5.5 -44.5h-85v15q0 40 14 62.5t55 50.5q21 15 21 30q0 14 -12.5 23t-32.5 9q-36 0 -43 -44h-84q3 61 39 90t90 29t91 -31.5t37 -77.5zM522 621h-145l-53 64l-54 -64h-147l147 138h107z" />
    <glyph glyph-name="Ecircumflextilde" unicode="&#x1ec4;" horiz-adv-x="520" 
d="M465 0h-397v739h397v-131h-260v-174h249v-131h-249v-172h260v-131zM432 1029q-45 -55 -94 -55q-13 0 -58.5 12.5t-54.5 12.5q-18 0 -29.5 -4t-40.5 -21l-54 80q26 26 49 36.5t54 10.5q12 0 52.5 -12.5t54.5 -12.5q37 0 67 34zM467 806h-145l-53 64l-54 -64h-147l147 138
h107z" />
    <glyph glyph-name="ecircumflextilde" unicode="&#x1ec5;" 
d="M608 269q0 -27 -5 -51h-429q12 -50 53 -79.5t100 -29.5q41 0 68.5 12.5t53.5 42.5h145q-27 -82 -101.5 -129.5t-162.5 -47.5q-127 0 -213.5 83t-86.5 205t85 207t207 85q124 0 205 -84.5t81 -213.5zM477 335q-13 53 -52.5 81.5t-100.5 28.5q-121 0 -154 -110h307z
M487 844q-45 -55 -94 -55q-13 0 -58.5 12.5t-54.5 12.5q-18 0 -29.5 -4t-40.5 -21l-54 80q26 26 49 36.5t54 10.5q12 0 52.5 -12.5t54.5 -12.5q37 0 67 34zM522 621h-145l-53 64l-54 -64h-147l147 138h107z" />
    <glyph glyph-name="Ecircumflexdotbelow" unicode="&#x1ec6;" horiz-adv-x="520" 
d="M465 0h-397v739h397v-131h-260v-174h249v-131h-249v-172h260v-131zM467 806h-145l-53 64l-54 -64h-147l147 138h107zM327 -212h-133v133h133v-133z" />
    <glyph glyph-name="ecircumflexdotbelow" unicode="&#x1ec7;" 
d="M608 269q0 -27 -5 -51h-429q12 -50 53 -79.5t100 -29.5q41 0 68.5 12.5t53.5 42.5h145q-27 -82 -101.5 -129.5t-162.5 -47.5q-127 0 -213.5 83t-86.5 205t85 207t207 85q124 0 205 -84.5t81 -213.5zM477 335q-13 53 -52.5 81.5t-100.5 28.5q-121 0 -154 -110h307z
M522 631h-145l-53 64l-54 -64h-147l147 138h107zM389 -212h-133v133h133v-133z" />
    <glyph glyph-name="Ihookabove" unicode="&#x1ec8;" horiz-adv-x="280" 
d="M205 0h-137v739h137v-739zM265 949q0 -46 -58 -85q-21 -14 -26.5 -26.5t-5.5 -44.5h-85v15q0 40 14 62.5t55 50.5q21 15 21 30q0 14 -12.5 23t-32.5 9q-36 0 -43 -44h-84q3 61 39 90t90 29t91 -31.5t37 -77.5z" />
    <glyph glyph-name="ihookabove" unicode="&#x1ec9;" horiz-adv-x="240" 
d="M187 0h-133v554h133v-554zM249 764q0 -46 -58 -85q-21 -14 -26.5 -26.5t-5.5 -44.5h-85v15q0 40 14 62.5t55 50.5q21 15 21 30q0 14 -12.5 23t-32.5 9q-36 0 -43 -44h-84q3 61 39 90t90 29t91 -31.5t37 -77.5z" />
    <glyph glyph-name="Idotbelow" unicode="&#x1eca;" horiz-adv-x="280" 
d="M205 0h-137v739h137v-739zM204 -212h-133v133h133v-133z" />
    <glyph glyph-name="idotbelow" unicode="&#x1ecb;" horiz-adv-x="240" 
d="M187 0h-133v554h133v-554zM188 634h-133v133h133v-133zM187 -212h-133v133h133v-133z" />
    <glyph glyph-name="Odotbelow" unicode="&#x1ecc;" horiz-adv-x="840" 
d="M800 370q0 -162 -110 -272.5t-271 -110.5q-163 0 -276 111t-113 271q0 162 112.5 272.5t277.5 110.5q158 0 269 -112t111 -270zM662 368q0 106 -70.5 179t-173.5 73q-107 0 -178.5 -72t-71.5 -179q0 -105 72.5 -177.5t177.5 -72.5t174.5 71t69.5 178zM487 -212h-133v133
h133v-133z" />
    <glyph glyph-name="odotbelow" unicode="&#x1ecd;" 
d="M619 273q0 -117 -87 -201.5t-208 -84.5q-122 0 -208 85t-86 205q0 119 86 204.5t207 85.5q125 0 210.5 -85t85.5 -209zM485 277q0 69 -47 118.5t-114 49.5q-65 0 -112.5 -49t-47.5 -117q0 -71 47 -120.5t114 -49.5q66 0 113 49t47 119zM390 -212h-133v133h133v-133z" />
    <glyph glyph-name="Ohookabove" unicode="&#x1ece;" horiz-adv-x="840" 
d="M800 370q0 -162 -110 -272.5t-271 -110.5q-163 0 -276 111t-113 271q0 162 112.5 272.5t277.5 110.5q158 0 269 -112t111 -270zM662 368q0 106 -70.5 179t-173.5 73q-107 0 -178.5 -72t-71.5 -179q0 -105 72.5 -177.5t177.5 -72.5t174.5 71t69.5 178zM548 949
q0 -46 -58 -85q-21 -14 -26.5 -26.5t-5.5 -44.5h-85v15q0 40 14 62.5t55 50.5q21 15 21 30q0 14 -12.5 23t-32.5 9q-36 0 -43 -44h-84q3 61 39 90t90 29t91 -31.5t37 -77.5z" />
    <glyph glyph-name="ohookabove" unicode="&#x1ecf;" 
d="M619 273q0 -117 -87 -201.5t-208 -84.5q-122 0 -208 85t-86 205q0 119 86 204.5t207 85.5q125 0 210.5 -85t85.5 -209zM485 277q0 69 -47 118.5t-114 49.5q-65 0 -112.5 -49t-47.5 -117q0 -71 47 -120.5t114 -49.5q66 0 113 49t47 119zM451 764q0 -46 -58 -85
q-21 -14 -26.5 -26.5t-5.5 -44.5h-85v15q0 40 14 62.5t55 50.5q21 15 21 30q0 14 -12.5 23t-32.5 9q-36 0 -43 -44h-84q3 61 39 90t90 29t91 -31.5t37 -77.5z" />
    <glyph glyph-name="Ocircumflexacute" unicode="&#x1ed0;" horiz-adv-x="840" 
d="M800 370q0 -162 -110 -272.5t-271 -110.5q-163 0 -276 111t-113 271q0 162 112.5 272.5t277.5 110.5q158 0 269 -112t111 -270zM662 368q0 106 -70.5 179t-173.5 73q-107 0 -178.5 -72t-71.5 -179q0 -105 72.5 -177.5t177.5 -72.5t174.5 71t69.5 178zM605 1084l-227 -120
l-51 78l224 134zM620 806h-145l-53 64l-54 -64h-147l147 138h107z" />
    <glyph glyph-name="ocircumflexacute" unicode="&#x1ed1;" 
d="M619 273q0 -117 -87 -201.5t-208 -84.5q-122 0 -208 85t-86 205q0 119 86 204.5t207 85.5q125 0 210.5 -85t85.5 -209zM485 277q0 69 -47 118.5t-114 49.5q-65 0 -112.5 -49t-47.5 -117q0 -71 47 -120.5t114 -49.5q66 0 113 49t47 119zM508 899l-227 -120l-51 78l224 134
zM523 621h-145l-53 64l-54 -64h-147l147 138h107z" />
    <glyph glyph-name="Ocircumflexgrave" unicode="&#x1ed2;" horiz-adv-x="840" 
d="M800 370q0 -162 -110 -272.5t-271 -110.5q-163 0 -276 111t-113 271q0 162 112.5 272.5t277.5 110.5q158 0 269 -112t111 -270zM662 368q0 106 -70.5 179t-173.5 73q-107 0 -178.5 -72t-71.5 -179q0 -105 72.5 -177.5t177.5 -72.5t174.5 71t69.5 178zM513 1042l-51 -78
l-227 120l54 92zM620 806h-145l-53 64l-54 -64h-147l147 138h107z" />
    <glyph glyph-name="ocircumflexgrave" unicode="&#x1ed3;" 
d="M619 273q0 -117 -87 -201.5t-208 -84.5q-122 0 -208 85t-86 205q0 119 86 204.5t207 85.5q125 0 210.5 -85t85.5 -209zM485 277q0 69 -47 118.5t-114 49.5q-65 0 -112.5 -49t-47.5 -117q0 -71 47 -120.5t114 -49.5q66 0 113 49t47 119zM416 857l-51 -78l-227 120l54 92z
M523 621h-145l-53 64l-54 -64h-147l147 138h107z" />
    <glyph glyph-name="Ocircumflexhookabove" unicode="&#x1ed4;" horiz-adv-x="840" 
d="M800 370q0 -162 -110 -272.5t-271 -110.5q-163 0 -276 111t-113 271q0 162 112.5 272.5t277.5 110.5q158 0 269 -112t111 -270zM662 368q0 106 -70.5 179t-173.5 73q-107 0 -178.5 -72t-71.5 -179q0 -105 72.5 -177.5t177.5 -72.5t174.5 71t69.5 178zM620 1127
q0 -46 -58 -85q-21 -14 -26.5 -26.5t-5.5 -44.5h-85v15q0 40 14 62.5t55 50.5q21 15 21 30q0 14 -12.5 23t-32.5 9q-36 0 -43 -44h-84q3 61 39 90t90 29t91 -31.5t37 -77.5zM620 806h-145l-53 64l-54 -64h-147l147 138h107z" />
    <glyph glyph-name="ocircumflexhookabove" unicode="&#x1ed5;" 
d="M619 273q0 -117 -87 -201.5t-208 -84.5q-122 0 -208 85t-86 205q0 119 86 204.5t207 85.5q125 0 210.5 -85t85.5 -209zM485 277q0 69 -47 118.5t-114 49.5q-65 0 -112.5 -49t-47.5 -117q0 -71 47 -120.5t114 -49.5q66 0 113 49t47 119zM523 942q0 -46 -58 -85
q-21 -14 -26.5 -26.5t-5.5 -44.5h-85v15q0 40 14 62.5t55 50.5q21 15 21 30q0 14 -12.5 23t-32.5 9q-36 0 -43 -44h-84q3 61 39 90t90 29t91 -31.5t37 -77.5zM523 621h-145l-53 64l-54 -64h-147l147 138h107z" />
    <glyph glyph-name="Ocircumflextilde" unicode="&#x1ed6;" horiz-adv-x="840" 
d="M800 370q0 -162 -110 -272.5t-271 -110.5q-163 0 -276 111t-113 271q0 162 112.5 272.5t277.5 110.5q158 0 269 -112t111 -270zM662 368q0 106 -70.5 179t-173.5 73q-107 0 -178.5 -72t-71.5 -179q0 -105 72.5 -177.5t177.5 -72.5t174.5 71t69.5 178zM585 1029
q-45 -55 -94 -55q-13 0 -58.5 12.5t-54.5 12.5q-18 0 -29.5 -4t-40.5 -21l-54 80q26 26 49 36.5t54 10.5q12 0 52.5 -12.5t54.5 -12.5q37 0 67 34zM620 806h-145l-53 64l-54 -64h-147l147 138h107z" />
    <glyph glyph-name="ocircumflextilde" unicode="&#x1ed7;" 
d="M619 273q0 -117 -87 -201.5t-208 -84.5q-122 0 -208 85t-86 205q0 119 86 204.5t207 85.5q125 0 210.5 -85t85.5 -209zM485 277q0 69 -47 118.5t-114 49.5q-65 0 -112.5 -49t-47.5 -117q0 -71 47 -120.5t114 -49.5q66 0 113 49t47 119zM488 844q-45 -55 -94 -55
q-13 0 -58.5 12.5t-54.5 12.5q-18 0 -29.5 -4t-40.5 -21l-54 80q26 26 49 36.5t54 10.5q12 0 52.5 -12.5t54.5 -12.5q37 0 67 34zM523 621h-145l-53 64l-54 -64h-147l147 138h107z" />
    <glyph glyph-name="Ocircumflexdotbelow" unicode="&#x1ed8;" horiz-adv-x="840" 
d="M800 370q0 -162 -110 -272.5t-271 -110.5q-163 0 -276 111t-113 271q0 162 112.5 272.5t277.5 110.5q158 0 269 -112t111 -270zM662 368q0 106 -70.5 179t-173.5 73q-107 0 -178.5 -72t-71.5 -179q0 -105 72.5 -177.5t177.5 -72.5t174.5 71t69.5 178zM620 806h-145
l-53 64l-54 -64h-147l147 138h107zM487 -212h-133v133h133v-133z" />
    <glyph glyph-name="ocircumflexdotbelow" unicode="&#x1ed9;" 
d="M619 273q0 -117 -87 -201.5t-208 -84.5q-122 0 -208 85t-86 205q0 119 86 204.5t207 85.5q125 0 210.5 -85t85.5 -209zM485 277q0 69 -47 118.5t-114 49.5q-65 0 -112.5 -49t-47.5 -117q0 -71 47 -120.5t114 -49.5q66 0 113 49t47 119zM523 631h-145l-53 64l-54 -64h-147
l147 138h107zM390 -212h-133v133h133v-133z" />
    <glyph glyph-name="Ohornacute" unicode="&#x1eda;" horiz-adv-x="859" 
d="M827 739q0 -109 -73 -187q46 -86 46 -182q0 -162 -110 -272.5t-271 -110.5q-163 0 -276 111t-113 271q0 162 112.5 272.5t277.5 110.5q81 0 153 -32.5t125 -89.5q34 42 34 109h95zM662 368q0 106 -70.5 179t-173.5 73q-107 0 -178.5 -72t-71.5 -179q0 -105 72.5 -177.5
t177.5 -72.5t174.5 71t69.5 178zM605 899l-227 -120l-51 78l224 134z" />
    <glyph glyph-name="ohornacute" unicode="&#x1edb;" horiz-adv-x="722" 
d="M693 554q0 -119 -86 -198q12 -39 12 -83q0 -117 -87 -201.5t-208 -84.5q-122 0 -208 85t-86 205q0 119 86 204.5t207 85.5q74 0 137.5 -32.5t104.5 -89.5q33 43 33 109h95zM485 277q0 69 -47 118.5t-114 49.5q-65 0 -112.5 -49t-47.5 -117q0 -71 47 -120.5t114 -49.5
q66 0 113 49t47 119zM508 724l-227 -120l-51 78l224 134z" />
    <glyph glyph-name="Ohorngrave" unicode="&#x1edc;" horiz-adv-x="859" 
d="M827 739q0 -109 -73 -187q46 -86 46 -182q0 -162 -110 -272.5t-271 -110.5q-163 0 -276 111t-113 271q0 162 112.5 272.5t277.5 110.5q81 0 153 -32.5t125 -89.5q34 42 34 109h95zM662 368q0 106 -70.5 179t-173.5 73q-107 0 -178.5 -72t-71.5 -179q0 -105 72.5 -177.5
t177.5 -72.5t174.5 71t69.5 178zM513 857l-51 -78l-227 120l54 92z" />
    <glyph glyph-name="ohorngrave" unicode="&#x1edd;" horiz-adv-x="722" 
d="M693 554q0 -119 -86 -198q12 -39 12 -83q0 -117 -87 -201.5t-208 -84.5q-122 0 -208 85t-86 205q0 119 86 204.5t207 85.5q74 0 137.5 -32.5t104.5 -89.5q33 43 33 109h95zM485 277q0 69 -47 118.5t-114 49.5q-65 0 -112.5 -49t-47.5 -117q0 -71 47 -120.5t114 -49.5
q66 0 113 49t47 119zM416 682l-51 -78l-227 120l54 92z" />
    <glyph glyph-name="Ohornhookabove" unicode="&#x1ede;" horiz-adv-x="859" 
d="M827 739q0 -109 -73 -187q46 -86 46 -182q0 -162 -110 -272.5t-271 -110.5q-163 0 -276 111t-113 271q0 162 112.5 272.5t277.5 110.5q81 0 153 -32.5t125 -89.5q34 42 34 109h95zM662 368q0 106 -70.5 179t-173.5 73q-107 0 -178.5 -72t-71.5 -179q0 -105 72.5 -177.5
t177.5 -72.5t174.5 71t69.5 178zM548 949q0 -46 -58 -85q-21 -14 -26.5 -26.5t-5.5 -44.5h-85v15q0 40 14 62.5t55 50.5q21 15 21 30q0 14 -12.5 23t-32.5 9q-36 0 -43 -44h-84q3 61 39 90t90 29t91 -31.5t37 -77.5z" />
    <glyph glyph-name="ohornhookabove" unicode="&#x1edf;" horiz-adv-x="722" 
d="M693 554q0 -119 -86 -198q12 -39 12 -83q0 -117 -87 -201.5t-208 -84.5q-122 0 -208 85t-86 205q0 119 86 204.5t207 85.5q74 0 137.5 -32.5t104.5 -89.5q33 43 33 109h95zM485 277q0 69 -47 118.5t-114 49.5q-65 0 -112.5 -49t-47.5 -117q0 -71 47 -120.5t114 -49.5
q66 0 113 49t47 119zM451 764q0 -46 -58 -85q-21 -14 -26.5 -26.5t-5.5 -44.5h-85v15q0 40 14 62.5t55 50.5q21 15 21 30q0 14 -12.5 23t-32.5 9q-36 0 -43 -44h-84q3 61 39 90t90 29t91 -31.5t37 -77.5z" />
    <glyph glyph-name="Ohorntilde" unicode="&#x1ee0;" horiz-adv-x="859" 
d="M827 739q0 -109 -73 -187q46 -86 46 -182q0 -162 -110 -272.5t-271 -110.5q-163 0 -276 111t-113 271q0 162 112.5 272.5t277.5 110.5q81 0 153 -32.5t125 -89.5q34 42 34 109h95zM662 368q0 106 -70.5 179t-173.5 73q-107 0 -178.5 -72t-71.5 -179q0 -105 72.5 -177.5
t177.5 -72.5t174.5 71t69.5 178zM585 862q-45 -55 -94 -55q-13 0 -58.5 12.5t-54.5 12.5q-18 0 -29.5 -4t-40.5 -21l-54 80q26 26 49 36.5t54 10.5q12 0 52.5 -12.5t54.5 -12.5q37 0 67 34z" />
    <glyph glyph-name="ohorntilde" unicode="&#x1ee1;" horiz-adv-x="722" 
d="M693 554q0 -119 -86 -198q12 -39 12 -83q0 -117 -87 -201.5t-208 -84.5q-122 0 -208 85t-86 205q0 119 86 204.5t207 85.5q74 0 137.5 -32.5t104.5 -89.5q33 43 33 109h95zM485 277q0 69 -47 118.5t-114 49.5q-65 0 -112.5 -49t-47.5 -117q0 -71 47 -120.5t114 -49.5
q66 0 113 49t47 119zM488 687q-45 -55 -94 -55q-13 0 -58.5 12.5t-54.5 12.5q-18 0 -29.5 -4t-40.5 -21l-54 80q26 26 49 36.5t54 10.5q12 0 52.5 -12.5t54.5 -12.5q37 0 67 34z" />
    <glyph glyph-name="Ohorndotbelow" unicode="&#x1ee2;" horiz-adv-x="859" 
d="M827 739q0 -109 -73 -187q46 -86 46 -182q0 -162 -110 -272.5t-271 -110.5q-163 0 -276 111t-113 271q0 162 112.5 272.5t277.5 110.5q81 0 153 -32.5t125 -89.5q34 42 34 109h95zM662 368q0 106 -70.5 179t-173.5 73q-107 0 -178.5 -72t-71.5 -179q0 -105 72.5 -177.5
t177.5 -72.5t174.5 71t69.5 178zM487 -212h-133v133h133v-133z" />
    <glyph glyph-name="ohorndotbelow" unicode="&#x1ee3;" horiz-adv-x="722" 
d="M693 554q0 -119 -86 -198q12 -39 12 -83q0 -117 -87 -201.5t-208 -84.5q-122 0 -208 85t-86 205q0 119 86 204.5t207 85.5q74 0 137.5 -32.5t104.5 -89.5q33 43 33 109h95zM485 277q0 69 -47 118.5t-114 49.5q-65 0 -112.5 -49t-47.5 -117q0 -71 47 -120.5t114 -49.5
q66 0 113 49t47 119zM390 -212h-133v133h133v-133z" />
    <glyph glyph-name="Udotbelow" unicode="&#x1ee4;" 
d="M567 271q0 -138 -68.5 -211t-181.5 -73q-112 0 -180.5 73.5t-68.5 210.5v468h137v-468q0 -82 28.5 -117t84.5 -35q55 0 83.5 34.5t28.5 117.5v468h137v-468zM385 -212h-133v133h133v-133z" />
    <glyph glyph-name="udotbelow" unicode="&#x1ee5;" horiz-adv-x="600" 
d="M547 0h-123v53q-37 -37 -73 -51.5t-86 -14.5q-211 0 -211 270v297h133v-271q0 -103 26 -138.5t79 -35.5q69 0 101 51q21 35 21 133v261h133v-554zM368 -212h-133v133h133v-133z" />
    <glyph glyph-name="Uhookabove" unicode="&#x1ee6;" 
d="M567 271q0 -138 -68.5 -211t-181.5 -73q-112 0 -180.5 73.5t-68.5 210.5v468h137v-468q0 -82 28.5 -117t84.5 -35q55 0 83.5 34.5t28.5 117.5v468h137v-468zM446 949q0 -46 -58 -85q-21 -14 -26.5 -26.5t-5.5 -44.5h-85v15q0 40 14 62.5t55 50.5q21 15 21 30
q0 14 -12.5 23t-32.5 9q-36 0 -43 -44h-84q3 61 39 90t90 29t91 -31.5t37 -77.5z" />
    <glyph glyph-name="uhookabove" unicode="&#x1ee7;" horiz-adv-x="600" 
d="M547 0h-123v53q-37 -37 -73 -51.5t-86 -14.5q-211 0 -211 270v297h133v-271q0 -103 26 -138.5t79 -35.5q69 0 101 51q21 35 21 133v261h133v-554zM429 764q0 -46 -58 -85q-21 -14 -26.5 -26.5t-5.5 -44.5h-85v15q0 40 14 62.5t55 50.5q21 15 21 30q0 14 -12.5 23t-32.5 9
q-36 0 -43 -44h-84q3 61 39 90t90 29t91 -31.5t37 -77.5z" />
    <glyph glyph-name="Uhornacute" unicode="&#x1ee8;" horiz-adv-x="748" 
d="M724 739q0 -91 -46 -154t-111 -95v-219q0 -122 -50 -189q-33 -44 -86.5 -69.5t-113.5 -25.5q-65 0 -121 29.5t-88 80.5q-40 64 -40 174v468h137v-468q0 -71 18 -102q31 -50 95 -50q63 0 94 50q18 31 18 102v468h137v-139q62 50 62 139h95zM503 899l-227 -120l-51 78
l224 134z" />
    <glyph glyph-name="uhornacute" unicode="&#x1ee9;" horiz-adv-x="729" 
d="M703 554q0 -90 -45.5 -153.5t-110.5 -94.5v-306h-123v53q-37 -37 -73 -51.5t-86 -14.5q-112 0 -169 82q-23 35 -32.5 76.5t-9.5 111.5v297h133v-271q0 -105 27 -139q26 -35 78 -35q71 0 101 51q21 31 21 133v261h133v-138q61 50 61 138h95zM486 724l-227 -120l-51 78
l224 134z" />
    <glyph glyph-name="Uhorngrave" unicode="&#x1eea;" horiz-adv-x="748" 
d="M724 739q0 -91 -46 -154t-111 -95v-219q0 -122 -50 -189q-33 -44 -86.5 -69.5t-113.5 -25.5q-65 0 -121 29.5t-88 80.5q-40 64 -40 174v468h137v-468q0 -71 18 -102q31 -50 95 -50q63 0 94 50q18 31 18 102v468h137v-139q62 50 62 139h95zM411 857l-51 -78l-227 120
l54 92z" />
    <glyph glyph-name="uhorngrave" unicode="&#x1eeb;" horiz-adv-x="729" 
d="M703 554q0 -90 -45.5 -153.5t-110.5 -94.5v-306h-123v53q-37 -37 -73 -51.5t-86 -14.5q-112 0 -169 82q-23 35 -32.5 76.5t-9.5 111.5v297h133v-271q0 -105 27 -139q26 -35 78 -35q71 0 101 51q21 31 21 133v261h133v-138q61 50 61 138h95zM394 682l-51 -78l-227 120
l54 92z" />
    <glyph glyph-name="Uhornhookabove" unicode="&#x1eec;" horiz-adv-x="748" 
d="M724 739q0 -91 -46 -154t-111 -95v-219q0 -122 -50 -189q-33 -44 -86.5 -69.5t-113.5 -25.5q-65 0 -121 29.5t-88 80.5q-40 64 -40 174v468h137v-468q0 -71 18 -102q31 -50 95 -50q63 0 94 50q18 31 18 102v468h137v-139q62 50 62 139h95zM446 949q0 -46 -58 -85
q-21 -14 -26.5 -26.5t-5.5 -44.5h-85v15q0 40 14 62.5t55 50.5q21 15 21 30q0 14 -12.5 23t-32.5 9q-36 0 -43 -44h-84q3 61 39 90t90 29t91 -31.5t37 -77.5z" />
    <glyph glyph-name="uhornhookabove" unicode="&#x1eed;" horiz-adv-x="729" 
d="M703 554q0 -90 -45.5 -153.5t-110.5 -94.5v-306h-123v53q-37 -37 -73 -51.5t-86 -14.5q-112 0 -169 82q-23 35 -32.5 76.5t-9.5 111.5v297h133v-271q0 -105 27 -139q26 -35 78 -35q71 0 101 51q21 31 21 133v261h133v-138q61 50 61 138h95zM429 764q0 -46 -58 -85
q-21 -14 -26.5 -26.5t-5.5 -44.5h-85v15q0 40 14 62.5t55 50.5q21 15 21 30q0 14 -12.5 23t-32.5 9q-36 0 -43 -44h-84q3 61 39 90t90 29t91 -31.5t37 -77.5z" />
    <glyph glyph-name="Uhorntilde" unicode="&#x1eee;" horiz-adv-x="748" 
d="M724 739q0 -91 -46 -154t-111 -95v-219q0 -122 -50 -189q-33 -44 -86.5 -69.5t-113.5 -25.5q-65 0 -121 29.5t-88 80.5q-40 64 -40 174v468h137v-468q0 -71 18 -102q31 -50 95 -50q63 0 94 50q18 31 18 102v468h137v-139q62 50 62 139h95zM483 862q-45 -55 -94 -55
q-13 0 -58.5 12.5t-54.5 12.5q-18 0 -29.5 -4t-40.5 -21l-54 80q26 26 49 36.5t54 10.5q12 0 52.5 -12.5t54.5 -12.5q37 0 67 34z" />
    <glyph glyph-name="uhorntilde" unicode="&#x1eef;" horiz-adv-x="729" 
d="M703 554q0 -90 -45.5 -153.5t-110.5 -94.5v-306h-123v53q-37 -37 -73 -51.5t-86 -14.5q-112 0 -169 82q-23 35 -32.5 76.5t-9.5 111.5v297h133v-271q0 -105 27 -139q26 -35 78 -35q71 0 101 51q21 31 21 133v261h133v-138q61 50 61 138h95zM466 687q-45 -55 -94 -55
q-13 0 -58.5 12.5t-54.5 12.5q-18 0 -29.5 -4t-40.5 -21l-54 80q26 26 49 36.5t54 10.5q12 0 52.5 -12.5t54.5 -12.5q37 0 67 34z" />
    <glyph glyph-name="Uhorndotbelow" unicode="&#x1ef0;" horiz-adv-x="748" 
d="M724 739q0 -91 -46 -154t-111 -95v-219q0 -122 -50 -189q-33 -44 -86.5 -69.5t-113.5 -25.5q-65 0 -121 29.5t-88 80.5q-40 64 -40 174v468h137v-468q0 -71 18 -102q31 -50 95 -50q63 0 94 50q18 31 18 102v468h137v-139q62 50 62 139h95zM385 -212h-133v133h133v-133z
" />
    <glyph glyph-name="uhorndotbelow" unicode="&#x1ef1;" horiz-adv-x="729" 
d="M703 554q0 -90 -45.5 -153.5t-110.5 -94.5v-306h-123v53q-37 -37 -73 -51.5t-86 -14.5q-112 0 -169 82q-23 35 -32.5 76.5t-9.5 111.5v297h133v-271q0 -105 27 -139q26 -35 78 -35q71 0 101 51q21 31 21 133v261h133v-138q61 50 61 138h95zM368 -212h-133v133h133v-133z
" />
    <glyph glyph-name="Ygrave" unicode="&#x1ef2;" horiz-adv-x="620" 
d="M626 739l-243 -466v-273h-137v273l-243 466h148l164 -340l163 340h148zM408 857l-51 -78l-227 120l54 92z" />
    <glyph glyph-name="ygrave" unicode="&#x1ef3;" horiz-adv-x="580" 
d="M568 554l-320 -739h-143l104 237l-203 502h152l123 -359l134 359h153zM380 682l-51 -78l-227 120l54 92z" />
    <glyph glyph-name="Ydotbelow" unicode="&#x1ef4;" horiz-adv-x="620" 
d="M626 739l-243 -466v-273h-137v273l-243 466h148l164 -340l163 340h148zM382 -212h-133v133h133v-133z" />
    <glyph glyph-name="ydotbelow" unicode="&#x1ef5;" horiz-adv-x="580" 
d="M568 554l-320 -739h-143l104 237l-203 502h152l123 -359l134 359h153zM516 -212h-133v133h133v-133z" />
    <glyph glyph-name="Yhookabove" unicode="&#x1ef6;" horiz-adv-x="620" 
d="M626 739l-243 -466v-273h-137v273l-243 466h148l164 -340l163 340h148zM443 949q0 -46 -58 -85q-21 -14 -26.5 -26.5t-5.5 -44.5h-85v15q0 40 14 62.5t55 50.5q21 15 21 30q0 14 -12.5 23t-32.5 9q-36 0 -43 -44h-84q3 61 39 90t90 29t91 -31.5t37 -77.5z" />
    <glyph glyph-name="yhookabove" unicode="&#x1ef7;" horiz-adv-x="580" 
d="M568 554l-320 -739h-143l104 237l-203 502h152l123 -359l134 359h153zM415 764q0 -46 -58 -85q-21 -14 -26.5 -26.5t-5.5 -44.5h-85v15q0 40 14 62.5t55 50.5q21 15 21 30q0 14 -12.5 23t-32.5 9q-36 0 -43 -44h-84q3 61 39 90t90 29t91 -31.5t37 -77.5z" />
    <glyph glyph-name="Ytilde" unicode="&#x1ef8;" horiz-adv-x="620" 
d="M626 739l-243 -466v-273h-137v273l-243 466h148l164 -340l163 340h148zM480 862q-45 -55 -94 -55q-13 0 -58.5 12.5t-54.5 12.5q-18 0 -29.5 -4t-40.5 -21l-54 80q26 26 49 36.5t54 10.5q12 0 52.5 -12.5t54.5 -12.5q37 0 67 34z" />
    <glyph glyph-name="ytilde" unicode="&#x1ef9;" horiz-adv-x="580" 
d="M568 554l-320 -739h-143l104 237l-203 502h152l123 -359l134 359h153zM452 687q-45 -55 -94 -55q-13 0 -58.5 12.5t-54.5 12.5q-18 0 -29.5 -4t-40.5 -21l-54 80q26 26 49 36.5t54 10.5q12 0 52.5 -12.5t54.5 -12.5q37 0 67 34z" />
    <glyph glyph-name="uni2010" unicode="&#x2010;" horiz-adv-x="420" 
d="M349 229h-277v118h277v-118z" />
    <glyph glyph-name="uni2011" unicode="&#x2011;" horiz-adv-x="420" 
d="M349 229h-277v118h277v-118z" />
    <glyph glyph-name="endash" unicode="&#x2013;" horiz-adv-x="500" 
d="M500 229h-500v118h500v-118z" />
    <glyph glyph-name="emdash" unicode="&#x2014;" horiz-adv-x="1000" 
d="M1000 229h-1000v118h1000v-118z" />
    <glyph glyph-name="dblverticalbar" unicode="&#x2016;" horiz-adv-x="600" 
d="M231 -137h-138v876h138v-876zM507 -137h-138v876h138v-876z" />
    <glyph glyph-name="quoteleft" unicode="&#x2018;" horiz-adv-x="280" 
d="M205 466h-133v140q0 60 36 96.5t97 36.5v-67q-32 -6 -45.5 -19t-13.5 -38q0 -10 1 -16h58v-133z" />
    <glyph glyph-name="quoteright" unicode="&#x2019;" horiz-adv-x="280" 
d="M205 599q0 -60 -34.5 -96.5t-98.5 -36.5v67q32 6 45.5 20t13.5 40q0 11 -1 18h-58v128h133v-140z" />
    <glyph glyph-name="quotesinglbase" unicode="&#x201a;" horiz-adv-x="280" 
d="M203 -7q0 -60 -34.5 -96.5t-98.5 -36.5v67q32 6 45.5 19t13.5 37q0 11 -1 17h-58v128h133v-135z" />
    <glyph glyph-name="quotedblleft" unicode="&#x201c;" horiz-adv-x="480" 
d="M203 466h-133v140q0 60 36 96.5t97 36.5v-67q-32 -6 -45.5 -19t-13.5 -39q0 -9 1 -15h58v-133zM410 466h-133v140q0 60 36 96.5t97 36.5v-67q-32 -6 -45.5 -19t-13.5 -37q0 -11 1 -17h58v-133z" />
    <glyph glyph-name="quotedblright" unicode="&#x201d;" horiz-adv-x="480" 
d="M203 599q0 -60 -35 -96.5t-98 -36.5v67q31 6 45 20.5t14 39.5q0 11 -1 18h-58v128h133v-140zM410 599q0 -60 -35 -96.5t-98 -36.5v67q32 6 45.5 20t13.5 40q0 11 -1 18h-58v128h133v-140z" />
    <glyph glyph-name="quotedblbase" unicode="&#x201e;" horiz-adv-x="480" 
d="M203 -7q0 -60 -34.5 -96.5t-98.5 -36.5v67q32 6 45.5 19t13.5 37q0 11 -1 17h-58v128h133v-135zM410 -7q0 -60 -35 -96.5t-98 -36.5v67q32 6 45.5 19t13.5 37q0 11 -1 17h-58v128h133v-135z" />
    <glyph glyph-name="dagger" unicode="&#x2020;" horiz-adv-x="560" 
d="M505 436h-161v-564h-133v564h-163v118h163v185h133v-185h161v-118z" />
    <glyph glyph-name="daggerdbl" unicode="&#x2021;" horiz-adv-x="560" 
d="M505 260h-162v-388h-133v388h-162v118h162v95h-162v118h162v148h133v-148h162v-118h-162v-95h162v-118z" />
    <glyph glyph-name="bullet" unicode="&#x2022;" horiz-adv-x="600" 
d="M471 316q0 -71 -49.5 -120t-121.5 -49q-68 0 -117 50t-49 119t49.5 118.5t118.5 49.5q70 0 119.5 -49t49.5 -119z" />
    <glyph glyph-name="ellipsis" unicode="&#x2026;" horiz-adv-x="1000" 
d="M233 0h-133v128h133v-128zM565 0h-133v128h133v-128zM899 0h-134v128h134v-128z" />
    <glyph glyph-name="perthousand" unicode="&#x2030;" horiz-adv-x="1280" 
d="M631 739l-306 -739h-102l305 739h103zM1248 168q0 -75 -53 -128t-128 -53t-128 53t-53 127q0 76 53 128.5t129 52.5q74 0 127 -53t53 -127zM1141 168q0 30 -22 52t-52 22t-51.5 -21.5t-21.5 -52.5t21.5 -52.5t51.5 -21.5t52 22t22 52zM835 168q0 -75 -53 -128t-128 -53
t-128 53t-53 127q0 76 53 128.5t129 52.5q73 0 126.5 -53t53.5 -127zM728 168q0 30 -22 52t-52 22t-51.5 -21.5t-21.5 -52.5t21.5 -52.5t51.5 -21.5t52 22t22 52zM383 572q0 -75 -53 -128t-128 -53t-128 53t-53 127q0 76 53 128.5t129 52.5q73 0 126.5 -53t53.5 -127z
M276 572q0 30 -22 52t-52 22t-51.5 -21.5t-21.5 -52.5t21.5 -52.5t51.5 -21.5t52 22t22 52z" />
    <glyph glyph-name="permyriad" unicode="&#x2031;" horiz-adv-x="1693" 
d="M631 739l-306 -739h-102l305 739h103zM1248 168q0 -75 -53 -128t-128 -53t-128 53t-53 127q0 76 53 128.5t129 52.5q74 0 127 -53t53 -127zM1141 168q0 30 -22 52t-52 22t-51.5 -21.5t-21.5 -52.5t21.5 -52.5t51.5 -21.5t52 22t22 52zM835 168q0 -75 -53 -128t-128 -53
t-128 53t-53 127q0 76 53 128.5t129 52.5q73 0 126.5 -53t53.5 -127zM728 168q0 30 -22 52t-52 22t-51.5 -21.5t-21.5 -52.5t21.5 -52.5t51.5 -21.5t52 22t22 52zM383 572q0 -75 -53 -128t-128 -53t-128 53t-53 127q0 76 53 128.5t129 52.5q73 0 126.5 -53t53.5 -127z
M276 572q0 30 -22 52t-52 22t-51.5 -21.5t-21.5 -52.5t21.5 -52.5t51.5 -21.5t52 22t22 52zM1661 168q0 -75 -53 -128t-128 -53t-128 53t-53 127q0 76 53 128.5t129 52.5q73 0 126.5 -53t53.5 -127zM1554 168q0 30 -22 52t-52 22t-51.5 -21.5t-21.5 -52.5t21.5 -52.5
t51.5 -21.5t52 22t22 52z" />
    <glyph glyph-name="guilsinglleft" unicode="&#x2039;" horiz-adv-x="240" 
d="M175 108l-139 131v100l139 130v-123l-67 -57l67 -58v-123z" />
    <glyph glyph-name="guilsinglright" unicode="&#x203a;" horiz-adv-x="240" 
d="M212 239l-139 -131v123l67 58l-67 57v123l139 -130v-100z" />
    <glyph glyph-name="referencemark" unicode="&#x203b;" horiz-adv-x="600" 
d="M523 125l-98 -98l-125 125l-125 -125l-98 98l125 125l-125 125l98 98l125 -125l125 125l98 -98l-125 -125zM364 486q0 -27 -19 -45.5t-45 -18.5t-45 18.5t-19 45.5q0 26 19 45t45 19t45 -19t19 -45zM364 14q0 -26 -19 -45t-45 -19t-45 19t-19 45q0 27 19 45.5t45 18.5
t45 -18.5t19 -45.5zM128 250q0 -26 -18.5 -45t-45.5 -19q-26 0 -45 19t-19 45t19 45t45 19q27 0 45.5 -19t18.5 -45zM600 250q0 -26 -19 -45t-45 -19q-27 0 -45.5 19t-18.5 45t18.5 45t45.5 19q26 0 45 -19t19 -45z" />
    <glyph glyph-name="interrobang" unicode="&#x203d;" horiz-adv-x="560" 
d="M485 523q0 -50 -22.5 -89.5t-79.5 -89.5q-41 -36 -52.5 -64t-12.5 -93h-133v18v378q-16 -25 -20 -63h-133q7 88 47.5 144t105.5 77v98h133v-94q74 -19 120.5 -79.5t46.5 -142.5zM318 0h-133v128h133v-128zM352 527q0 45 -34 73v-148q34 36 34 75z" />
    <glyph glyph-name="uni203F" unicode="&#x203f;" horiz-adv-x="636" 
d="M609 -30q0 -71 -73 -116.5t-218 -45.5t-218 45.5t-73 116.5h122q0 -27 37 -33.5t132 -6.5t132 6.5t37 33.5h122z" />
    <glyph glyph-name="uni2040" unicode="&#x2040;" horiz-adv-x="636" 
d="M609 577h-122q0 27 -37 33.5t-132 6.5t-132 -6.5t-37 -33.5h-122q0 71 73 116.5t218 45.5t218 -45.5t73 -116.5z" />
    <glyph glyph-name="fraction" unicode="&#x2044;" horiz-adv-x="160" 
d="M280 739l-306 -739h-95l306 739h95z" />
    <glyph glyph-name="quillbracketleft" unicode="&#x2045;" horiz-adv-x="373" 
d="M319 -125q-108 0 -186.5 49.5t-78.5 134.5v123q0 73 63 123q-63 51 -63 124v123q0 85 78.5 134.5t186.5 49.5v-122q-127 0 -127 -62v-123q0 -62 127 -62v-122q-127 0 -127 -63v-123q0 -62 127 -62v-122z" />
    <glyph glyph-name="quillbracketright" unicode="&#x2046;" horiz-adv-x="373" 
d="M319 59q0 -85 -78.5 -134.5t-186.5 -49.5v122q127 0 127 62v123q0 63 -127 63v122q127 0 127 62v123q0 62 -127 62v122q108 0 186.5 -49.5t78.5 -134.5v-123q0 -73 -63 -123q63 -51 63 -124v-123z" />
    <glyph glyph-name="discount" unicode="&#x2052;" horiz-adv-x="560" 
d="M201 598q0 -33 -23.5 -56.5t-56.5 -23.5q-34 0 -57 23.5t-23 56.5t23 56.5t57 23.5q33 0 56.5 -23.5t23.5 -56.5zM519 141q0 -33 -23 -56.5t-57 -23.5q-33 0 -56.5 23.5t-23.5 56.5t23.5 56.5t56.5 23.5q34 0 57 -23.5t23 -56.5zM487 739l-284 -739h-130l284 739h130z
" />
    <glyph glyph-name="uni2054" unicode="&#x2054;" horiz-adv-x="636" 
d="M609 -192h-122q0 27 -37 33.5t-132 6.5t-132 -6.5t-37 -33.5h-122q0 71 73 116.5t218 45.5t218 -45.5t73 -116.5z" />
    <glyph glyph-name="colonmonetary" unicode="&#x20a1;" horiz-adv-x="780" 
d="M760 206q-41 -95 -125.5 -153t-189.5 -65v-71h-110v79q-133 29 -219 134t-86 242q0 136 87 241.5t218 131.5v77h110v-71q104 -9 187 -67.5t128 -156.5h-153q-63 82 -162 92v-499q81 10 154 86h161zM335 133v475q-75 -24 -121 -88.5t-46 -148.5q0 -81 46.5 -146.5
t120.5 -91.5z" />
    <glyph glyph-name="lira" unicode="&#x20a4;" horiz-adv-x="560" 
d="M563 222q0 -103 -75 -168q-35 -30 -76.5 -42t-110.5 -12h-260v125h139q20 34 20 73q0 41 -34 84h-166v105h90l-17 26h-73v105h41q1 98 70 166t169 68q95 0 160.5 -58.5t73.5 -152.5h-135q-11 43 -36.5 66t-61.5 23q-43 0 -74 -32.5t-33 -79.5h234v-105h-190l21 -26h169
v-105h-90q15 -30 15 -82q0 -38 -13 -75q53 0 81.5 26t28.5 69q0 21 -10 54h132q11 -29 11 -52z" />
    <glyph glyph-name="naira" unicode="&#x20a6;" horiz-adv-x="740" 
d="M736 253h-69v-253h-153l-146 253h-163v-253h-137v253h-69v122h69v63h-69v122h69v179h156l102 -179h204v179h137v-179h69v-122h-69v-63h69v-122zM298 375l-36 63h-57v-63h93zM530 375v63h-135l36 -63h99zM530 253h-30l30 -52v52z" />
    <glyph glyph-name="won" unicode="&#x20a9;" horiz-adv-x="900" 
d="M898 253h-142l-74 -253h-109l-62 253h-116l-63 -253h-108l-74 253h-143v122h107l-19 63h-88v122h53l-53 179h140l45 -179h167l44 179h100l43 -179h167l45 179h140l-52 -179h52v-122h-88l-18 -63h106v-122zM329 438h-106l16 -63h75zM284 253h-15l8 -30zM682 438h-107
l15 -63h76zM635 253h-15l7 -30zM482 375l-16 63h-25l-15 -63h56z" />
    <glyph glyph-name="dong" unicode="&#x20ab;" horiz-adv-x="644" 
d="M589 623h-40v-512h-104v61q-65 -72 -155 -72q-100 0 -168 71.5t-68 175.5q0 106 68 179t168 73q94 0 146 -60v84h-107v73h107v43h113v-43h40v-73zM589 -122h-535v122h535v-122zM445 349q0 62 -40.5 104t-99.5 42q-58 0 -98 -41.5t-40 -101.5q0 -62 41 -105.5t100 -43.5
q57 0 97 42.5t40 103.5z" />
    <glyph glyph-name="Euro" unicode="&#x20ac;" horiz-adv-x="560" 
d="M595 684l-39 -103q-98 58 -183 58q-68 0 -108 -37t-63 -121h315l-33 -88h-289v-45h272l-34 -88h-233q18 -73 64.5 -114t114.5 -41q49 0 146 40v-123q-81 -33 -160 -33q-93 0 -165 46q-52 31 -81.5 82t-49.5 143h-101l24 88h69v19q0 15 1 26h-95l24 88h79
q33 142 107.5 205.5t198.5 63.5q62 0 109.5 -14.5t109.5 -51.5z" />
    <glyph glyph-name="peso" unicode="&#x20b1;" horiz-adv-x="560" 
d="M540 511q0 -64 -26 -116.5t-71 -80.5q-31 -19 -73 -26t-121 -7h-44v-48h75v-97h-75v-136h-137v136h-69v97h69v506h183q132 0 189 -34q100 -61 100 -194zM402 509q0 57 -34.5 78t-116.5 21h-46v-196h40q89 0 123 23.5t34 73.5z" />
    <glyph glyph-name="centigrade" unicode="&#x2103;" horiz-adv-x="1242" 
d="M350 533q0 -64 -43.5 -108.5t-106.5 -44.5t-106.5 44.5t-43.5 109.5q0 64 44.5 108t109.5 44q62 0 104 -44.5t42 -108.5zM1134 206q-43 -101 -135.5 -160t-205.5 -59q-162 0 -275.5 112.5t-113.5 272.5q0 157 111.5 268.5t268.5 111.5q115 0 208.5 -59.5t141.5 -165.5
h-153q-38 49 -84 71t-110 22q-105 0 -175 -72t-70 -177q0 -104 73 -178t175 -74q54 0 96 20t87 67h161zM293 533q0 40 -26.5 68t-64.5 28q-40 0 -68 -28t-28 -68t28 -68t66 -28q39 0 66 28t27 68z" />
    <glyph glyph-name="l.script" unicode="&#x2113;" horiz-adv-x="559" 
d="M505 185q0 -81 -53 -139.5t-129 -58.5q-122 0 -167 158q-36 -14 -82 -22l-20 123q45 8 81 24q-2 48 -2 72q0 56 2 97t7.5 91.5t18 85.5t32 66t51 47t72.5 16q64 0 109.5 -45t45.5 -109q0 -115 -52 -216t-143 -167q10 -83 47 -83q24 0 41 17.5t17 42.5h124zM346 591
q0 13 -9 21.5t-21 8.5q-45 0 -45 -247q75 96 75 217z" />
    <glyph glyph-name="numero" unicode="&#x2116;" horiz-adv-x="1123" 
d="M667 0h-153l-309 537v-537h-137v739h156l306 -538v538h137v-739zM1083 372q0 -77 -54 -131t-131 -54q-76 0 -130 55.5t-54 133.5q0 74 54.5 127.5t130.5 53.5q77 0 130.5 -54t53.5 -131zM1083 0h-369v84h369v-84zM995 373q0 41 -28.5 70.5t-67.5 29.5q-40 0 -68.5 -29
t-28.5 -68q0 -43 27.5 -71.5t68.5 -28.5t69 28t28 69z" />
    <glyph glyph-name="published" unicode="&#x2117;" horiz-adv-x="740" 
d="M720 337q0 -145 -102.5 -247.5t-247.5 -102.5t-247.5 102.5t-102.5 247.5t102.5 247.5t247.5 102.5t247.5 -102.5t102.5 -247.5zM660 337q0 120 -85 205t-205 85t-205 -85t-85 -205t85 -205t205 -85t205 85t85 205zM543 409q0 -35 -16 -64.5t-44 -45.5q-33 -18 -113 -18
h-15v-143h-96v399h112q75 0 110 -19q62 -34 62 -109zM447 408q0 25 -17 32.5t-59 7.5h-16v-78h13q45 0 62 8.5t17 29.5z" />
    <glyph glyph-name="weierstrass" unicode="&#x2118;" horiz-adv-x="708" 
d="M654 284q0 -120 -54 -208.5t-148 -88.5q-60 0 -135 65l73 83q11 -10 62 -10q23 0 37 13t19.5 40.5t6.5 47.5t1 58q0 30 -0.5 45.5t-3.5 40.5t-9.5 38t-19.5 23t-31 10t-41.5 -30.5t-51.5 -89.5t-48 -107t-48 -119q39 -97 39 -220q0 -46 -40 -75t-94 -29q-44 0 -75 30.5
t-31 73.5q0 81 52 216q-60 133 -60 221q0 161 139 295l76 -80q-77 -74 -77 -215q0 -16 1 -24q60 134 122.5 212.5t136.5 78.5q94 0 148 -87.5t54 -207.5zM206 -125q0 11 -27 72q-21 -39 -21 -72q0 -8 10 -8q38 0 38 8z" />
    <glyph glyph-name="recipe" unicode="&#x211e;" horiz-adv-x="580" 
d="M594 181l-107 -70l81 -111h-169l-26 38l-29 -18l-52 82l26 17l-113 164v-283h-137v739h213q76 0 121 -12t81 -43q78 -66 78 -182q0 -181 -193 -229l61 -83l113 73zM423 498q0 55 -33 82.5t-124 27.5h-61v-222h67q79 0 115 26.5t36 85.5z" />
    <glyph glyph-name="servicemark" unicode="&#x2120;" horiz-adv-x="1065" 
d="M395 443q0 -60 -48.5 -101.5t-119.5 -41.5q-75 0 -123.5 40t-49.5 107h117q0 -51 56 -51q24 0 39.5 10.5t15.5 27.5q0 21 -17 32q-13 8 -82 30q-111 34 -111 122q0 53 45 90.5t109 37.5q69 0 113.5 -38t43.5 -101h-117q2 21 -8.5 32t-31.5 11q-17 0 -28.5 -8.5
t-11.5 -21.5q0 -15 21 -26q6 -3 53 -18q77 -24 106 -55t29 -78zM1011 739v-432h-113v263l-110 -263h-88l-110 263v-263h-113v432h143l125 -293l123 293h143z" />
    <glyph glyph-name="trademark" unicode="&#x2122;" horiz-adv-x="1000" 
d="M349 643h-91v-336h-113v336h-91v96h295v-96zM946 739v-432h-113v263l-110 -263h-88l-110 263v-263h-113v432h143l125 -293l123 293h143z" />
    <glyph glyph-name="ohm" unicode="&#x2126;" horiz-adv-x="771" 
d="M748 339q0 -61 -19.5 -116.5t-55.5 -85.5h59v-138h-249l-15 135q61 27 100.5 81t39.5 124q0 93 -66 158q-64 62 -150 65l1 -2q-101 0 -166.5 -64t-65.5 -158q0 -70 39 -123.5t101 -80.5l-15 -135h-253v138h62q-36 30 -55.5 84.5t-19.5 116.5q0 150 107 254
q107 105 257 105q151 0 257 -104q107 -104 107 -254z" />
    <glyph glyph-name="uni2127" unicode="&#x2127;" horiz-adv-x="771" 
d="M752 402q0 -150 -107 -254q-107 -105 -257 -105q-151 0 -257 104q-107 104 -107 254q0 61 19.5 116.5t55.5 85.5h-59v138h249l15 -135q-61 -27 -100.5 -81t-39.5 -124q0 -93 66 -158q64 -62 150 -65l-1 2q101 0 166.5 64t65.5 158q0 70 -39 123.5t-101 80.5l15 135h253
v-138h-62q36 -30 55.5 -84.5t19.5 -116.5z" />
    <glyph glyph-name="estimated" unicode="&#x212e;" horiz-adv-x="847" 
d="M793 333v-10l-604 -10v-184q0 -4 3 -7q93 -103 232 -103q69 0 131 29t106 81h55q-52 -61 -129 -95t-163 -34q-151 0 -260.5 96t-109.5 237q0 140 109.5 236t260.5 96q150 0 259.5 -96t109.5 -236zM658 352v184q0 4 -3 7q-44 49 -104.5 76t-126.5 27q-139 0 -232 -103
q-3 -3 -3 -7v-184q0 -10 10 -10h449q10 0 10 10z" />
    <glyph glyph-name="uni2190" unicode="&#x2190;" horiz-adv-x="1000" 
d="M892 181h-590l60 -126l-124 -60l-123 255l123 255l124 -60l-60 -126h590v-138z" />
    <glyph glyph-name="uni2191" unicode="&#x2191;" horiz-adv-x="726" 
d="M618 512l-60 -124l-126 60v-590h-138v590l-126 -60l-60 124l255 123z" />
    <glyph glyph-name="uni2192" unicode="&#x2192;" horiz-adv-x="1000" 
d="M885 250l-123 -255l-124 60l60 126h-590v138h590l-60 126l124 60z" />
    <glyph glyph-name="uni2193" unicode="&#x2193;" horiz-adv-x="726" 
d="M618 -12l-255 -123l-255 123l60 124l126 -60v590h138v-590l126 60z" />
    <glyph glyph-name="partialdiff" unicode="&#x2202;" horiz-adv-x="494" 
d="M471 370q0 -100 -31 -186.5t-94.5 -143t-147.5 -56.5q-75 0 -125 59.5t-50 141.5q0 100 56.5 174.5t144.5 74.5q57 0 108 -21q-8 239 -134 239q-16 0 -55 -41l-102 94q48 50 157 50q84 0 147.5 -56t94.5 -142.5t31 -186.5zM331 296q-49 35 -107 35q-21 0 -34.5 -12.5
t-19.5 -36t-7.5 -45t-1.5 -52.5q0 -23 0.5 -35.5t4 -29.5t11.5 -25t21 -8q118 0 133 209z" />
    <glyph glyph-name="summation" unicode="&#x2211;" horiz-adv-x="713" 
d="M632 -123h-551v138l157 300l-157 299v138h551v-138h-395l156 -300l-156 -299h395v-138z" />
    <glyph glyph-name="minus" unicode="&#x2212;" horiz-adv-x="600" 
d="M546 181h-492v138h492v-138z" />
    <glyph glyph-name="minusplus" unicode="&#x2213;" horiz-adv-x="600" 
d="M546 43h-177v-177h-138v177h-177v138h177v57h138v-57h177v-138zM546 362h-492v138h492v-138z" />
    <glyph glyph-name="fraction.alt" unicode="&#x2215;" horiz-adv-x="0" 
d="M201 739l-306 -739h-95l306 739h95z" />
    <glyph glyph-name="asterisk.math" unicode="&#x2217;" horiz-adv-x="469" 
d="M415 207l-116 6l63 -96l-68 -46l-56 106l-52 -106l-77 37l63 107l-118 -8v85l119 -6l-64 103l76 39l53 -104l55 105l71 -43l-65 -100l116 7v-86z" />
    <glyph glyph-name="radical" unicode="&#x221a;" horiz-adv-x="549" 
d="M542 904l-152 -939h-56l-225 460l-95 -47l-39 83l194 94l169 -343l114 705z" />
    <glyph glyph-name="infinity" unicode="&#x221e;" horiz-adv-x="746" 
d="M714 310q0 -87 -57.5 -144.5t-144.5 -57.5q-42 0 -80 30t-60 66q-19 -36 -58 -66t-82 -30q-86 0 -143 57.5t-57 144.5q0 85 59 144.5t143 59.5q80 0 138 -86q60 86 138 86q86 0 145 -59t59 -145zM314 310q-4 9 -11 21.5t-28 33.5t-41 21q-35 0 -57.5 -21.5t-22.5 -54.5
q0 -32 23 -53t57 -21q20 0 40 18.5t30 37.5zM592 310q0 33 -23.5 54.5t-58.5 21.5q-20 0 -40 -19t-30 -38l-10 -19q1 -3 4 -8t11.5 -18t17.5 -22.5t22.5 -17.5t26.5 -8q33 0 56.5 21.5t23.5 52.5z" />
    <glyph glyph-name="anglearc" unicode="&#x2222;" horiz-adv-x="600" 
d="M516 107l-49 -98l-51 26q-42 -61 -111 -105l-57 93q39 24 69 61l-233 117v98l233 117q-30 37 -69 61l57 93q69 -44 111 -105l51 26l49 -98l-51 -25q19 -60 19 -118t-19 -118zM375 250q0 35 -9 68l-136 -68l136 -68q9 33 9 68z" />
    <glyph glyph-name="approxequal" unicode="&#x2248;" horiz-adv-x="600" 
d="M555 176q-39 -64 -71.5 -90.5t-73.5 -26.5q-33 0 -91 24l-54 22q-47 19 -64 19q-26 0 -47 -22q-11 -11 -40 -59l-63 75q44 71 72.5 97t75.5 26q39 0 77 -16l67 -27q54 -22 71 -22q36 0 77 74zM555 383q-39 -64 -71.5 -90.5t-73.5 -26.5q-33 0 -91 24l-54 22
q-47 19 -64 19q-26 0 -47 -22q-11 -11 -40 -59l-63 75q44 71 72.5 97t75.5 26q39 0 77 -16l67 -27q54 -22 71 -22q36 0 77 74z" />
    <glyph glyph-name="notequal" unicode="&#x2260;" horiz-adv-x="600" 
d="M546 89h-249l-85 -174l-124 62l55 112h-89v138h158l23 46h-181v138h249l85 174l124 -62l-55 -112h89v-138h-158l-23 -46h181v-138z" />
    <glyph glyph-name="lessequal" unicode="&#x2264;" horiz-adv-x="600" 
d="M492 99l-427 338v108l427 338v-176l-273 -216l273 -216v-176zM492 -69h-384v138h384v-138z" />
    <glyph glyph-name="greaterequal" unicode="&#x2265;" horiz-adv-x="600" 
d="M535 437l-427 -338v176l273 216l-273 216v176l427 -338v-108zM492 -69h-384v138h384v-138z" />
    <glyph glyph-name="star" unicode="&#x22c6;" horiz-adv-x="560" 
d="M548 302l-207 -55l135 -166l-80 -58l-116 180l-116 -180l-80 58l135 166l-207 55l30 94l200 -77l-11 214h98l-11 -214l200 77z" />
    <glyph glyph-name="diameter" unicode="&#x2300;" horiz-adv-x="600" 
d="M557 430l-58 -58q34 -58 34 -122q0 -97 -68 -165t-165 -68q-64 0 -122 34l-58 -58l-77 77l58 58q-34 58 -34 122q0 97 68 165t165 68q64 0 122 -34l58 58zM424 250q0 23 -7 40l-157 -157q17 -7 40 -7q51 0 87.5 36.5t36.5 87.5zM340 367q-17 7 -40 7q-51 0 -87.5 -36.5
t-36.5 -87.5q0 -23 7 -40z" />
    <glyph glyph-name="angleleft" unicode="&#x2329;" horiz-adv-x="295" 
d="M240 -137h-138l-48 438l48 438h138l-48 -438z" />
    <glyph glyph-name="angleright" unicode="&#x232a;" horiz-adv-x="295" 
d="M240 301l-48 -438h-138l48 438l-48 438h138z" />
    <glyph glyph-name="blanksymbol" unicode="&#x2422;" horiz-adv-x="660" 
d="M638 281q0 -126 -76.5 -210t-193.5 -84q-62 0 -105.5 19t-86.5 65v-71h-122v518l-61 -22v116l61 23v104h133v-56l143 53v-117l-143 -52v-64q38 38 78 54.5t94 16.5q119 0 199 -84t80 -209zM504 280q0 74 -46.5 123t-117.5 49q-70 0 -115.5 -48t-45.5 -123q0 -76 46 -124
t118 -48q71 0 116 47.5t45 123.5z" />
    <glyph glyph-name="uni2423" unicode="&#x2423;" horiz-adv-x="500" 
d="M446 -92h-392v308h122v-186h148v186h122v-308z" />
    <glyph glyph-name="lozenge" unicode="&#x25ca;" horiz-adv-x="494" 
d="M466 374l-197 -374h-60l-191 377l196 363h63zM373 374l-128 251l-134 -249l129 -259z" />
    <glyph glyph-name="openbullet" unicode="&#x25e6;" horiz-adv-x="600" 
d="M471 316q0 -70 -49 -119.5t-119 -49.5q-71 0 -120 49.5t-49 119.5t49.5 119t119.5 49t119 -49t49 -119zM333 316q0 12 -9 21t-21 9q-13 0 -22 -9t-9 -21q0 -13 9 -22t22 -9q12 0 21 9t9 22z" />
    <glyph glyph-name="uni266A" unicode="&#x266a;" horiz-adv-x="672" 
d="M668 250h-130q0 69 -64 173v-313q0 -56 -50 -89.5t-118 -33.5t-118 33.5t-50 89.5t50 89.5t118 33.5q20 0 38 -3v509h130q0 -33 15.5 -74.5t29 -65t42.5 -70.5q51 -82 79 -146t28 -133z" />
    <glyph glyph-name="married" unicode="&#x26ad;" horiz-adv-x="560" 
d="M662 250q0 -115 -81.5 -196t-195.5 -81q-56 0 -105 20q-49 -20 -104 -20q-115 0 -196 81t-81 196t81 196t196 81q55 0 104 -20q49 20 105 20q114 0 195.5 -81t81.5 -196zM315 250q0 50 -35 92q-34 -40 -34 -92t34 -92q35 42 35 92zM143 115q-35 61 -35 135t35 135
q-46 -11 -76 -49t-30 -86t30 -86t76 -49zM524 250q0 48 -30.5 86t-76.5 49q36 -63 36 -135t-36 -135q46 11 76.5 49t30.5 86z" />
    <glyph glyph-name="divorced" unicode="&#x26ae;" horiz-adv-x="560" 
d="M187 250q0 -112 -57.5 -194.5t-150.5 -82.5q-94 0 -151 82.5t-57 194.5t57 194.5t151 82.5q93 0 150.5 -82.5t57.5 -194.5zM789 250q0 -112 -57 -194.5t-151 -82.5q-93 0 -150.5 82.5t-57.5 194.5t57.5 194.5t150.5 82.5q94 0 151 -82.5t57 -194.5zM349 -304h-138v1108
h138v-1108zM65 250q0 57 -22 98t-64 41q-70 0 -70 -139t70 -139q42 0 64 41t22 98zM651 250q0 139 -70 139q-42 0 -64 -41t-22 -98t22 -98t64 -41q70 0 70 139z" />
    <glyph glyph-name="dblbracketleft" unicode="&#x27e6;" horiz-adv-x="660" 
d="M606 -137h-552v876h552v-130h-138v-616h138v-130zM330 -7v616h-138v-616h138z" />
    <glyph glyph-name="dblbracketright" unicode="&#x27e7;" horiz-adv-x="660" 
d="M606 -137h-552v130h138v616h-138v130h552v-876zM468 -7v616h-138v-616h138z" />
    <glyph glyph-name="lessequal.slant" unicode="&#x2a7d;" horiz-adv-x="600" 
d="M492 99l-427 338v108l427 338v-176l-273 -216l273 -216v-176zM492 -234l-384 304v176l384 -304v-176z" />
    <glyph glyph-name="greaterequal.slant" unicode="&#x2a7e;" horiz-adv-x="600" 
d="M492 437l-427 -338v176l273 216l-273 216v176l427 -338v-108zM449 70l-384 -304v176l384 304v-176z" />
    <glyph glyph-name="abreveacute.sc" unicode="&#xe000;" horiz-adv-x="637" 
d="M623 0h-147l-62 135h-189l-64 -135h-147l254 554h99zM359 258l-41 107l-42 -107h83zM523 907l-227 -120l-51 78l224 134zM483 760q-2 -62 -47.5 -100.5t-116.5 -38.5q-74 0 -118 36.5t-48 102.5h98q18 -43 68 -43q54 0 62 43h102z" />
    <glyph glyph-name="abrevedotbelow.sc" unicode="&#xe001;" horiz-adv-x="637" 
d="M623 0h-147l-62 135h-189l-64 -135h-147l254 554h99zM359 258l-41 107l-42 -107h83zM482 770q-2 -62 -47.5 -100.5t-116.5 -38.5q-74 0 -118 36.5t-48 102.5h98q18 -43 68 -43q54 0 62 43h102zM386 -212h-133v133h133v-133z" />
    <glyph glyph-name="abrevegrave.sc" unicode="&#xe002;" horiz-adv-x="637" 
d="M623 0h-147l-62 135h-189l-64 -135h-147l254 554h99zM359 258l-41 107l-42 -107h83zM391 865l-51 -78l-227 120l54 92zM483 760q-2 -62 -47.5 -100.5t-116.5 -38.5q-74 0 -118 36.5t-48 102.5h98q18 -43 68 -43q54 0 62 43h102z" />
    <glyph glyph-name="abrevehookabove.sc" unicode="&#xe003;" horiz-adv-x="637" 
d="M623 0h-147l-62 135h-189l-64 -135h-147l254 554h99zM359 258l-41 107l-42 -107h83zM447 929q0 -46 -58 -85q-21 -14 -26.5 -26.5t-5.5 -44.5h-85v15q0 40 14 62.5t55 50.5q21 15 21 30q0 14 -12.5 23t-32.5 9q-36 0 -43 -44h-84q3 61 39 90t90 29t91 -31.5t37 -77.5z
M483 760q-2 -62 -47.5 -100.5t-116.5 -38.5q-74 0 -118 36.5t-48 102.5h98q18 -43 68 -43q54 0 62 43h102z" />
    <glyph glyph-name="abrevetilde.sc" unicode="&#xe004;" horiz-adv-x="637" 
d="M623 0h-147l-62 135h-189l-64 -135h-147l254 554h99zM359 258l-41 107l-42 -107h83zM483 851q-45 -55 -94 -55q-13 0 -58.5 12.5t-54.5 12.5q-18 0 -29.5 -4t-40.5 -21l-54 80q26 26 49 36.5t54 10.5q12 0 52.5 -12.5t54.5 -12.5q37 0 67 34zM483 760
q-2 -62 -47.5 -100.5t-116.5 -38.5q-74 0 -118 36.5t-48 102.5h98q18 -43 68 -43q54 0 62 43h102z" />
    <glyph glyph-name="acaron.sc" unicode="&#xe005;" horiz-adv-x="637" 
d="M623 0h-147l-62 135h-189l-64 -135h-147l254 554h99zM359 258l-41 107l-42 -107h83zM518 769l-147 -138h-107l-145 138h145l53 -64l54 64h147z" />
    <glyph glyph-name="acircumflexacute.sc" unicode="&#xe006;" horiz-adv-x="637" 
d="M623 0h-147l-62 135h-189l-64 -135h-147l254 554h99zM359 258l-41 107l-42 -107h83zM503 899l-227 -120l-51 78l224 134zM518 621h-145l-53 64l-54 -64h-147l147 138h107z" />
    <glyph glyph-name="acircumflexdotbelow.sc" unicode="&#xe007;" horiz-adv-x="637" 
d="M623 0h-147l-62 135h-189l-64 -135h-147l254 554h99zM359 258l-41 107l-42 -107h83zM518 631h-145l-53 64l-54 -64h-147l147 138h107zM386 -212h-133v133h133v-133z" />
    <glyph glyph-name="acircumflexgrave.sc" unicode="&#xe008;" horiz-adv-x="637" 
d="M623 0h-147l-62 135h-189l-64 -135h-147l254 554h99zM359 258l-41 107l-42 -107h83zM411 857l-51 -78l-227 120l54 92zM518 621h-145l-53 64l-54 -64h-147l147 138h107z" />
    <glyph glyph-name="acircumflexhookabove.sc" unicode="&#xe009;" horiz-adv-x="637" 
d="M623 0h-147l-62 135h-189l-64 -135h-147l254 554h99zM359 258l-41 107l-42 -107h83zM518 942q0 -46 -58 -85q-21 -14 -26.5 -26.5t-5.5 -44.5h-85v15q0 40 14 62.5t55 50.5q21 15 21 30q0 14 -12.5 23t-32.5 9q-36 0 -43 -44h-84q3 61 39 90t90 29t91 -31.5t37 -77.5z
M518 621h-145l-53 64l-54 -64h-147l147 138h107z" />
    <glyph glyph-name="acircumflextilde.sc" unicode="&#xe00a;" horiz-adv-x="637" 
d="M623 0h-147l-62 135h-189l-64 -135h-147l254 554h99zM359 258l-41 107l-42 -107h83zM483 844q-45 -55 -94 -55q-13 0 -58.5 12.5t-54.5 12.5q-18 0 -29.5 -4t-40.5 -21l-54 80q26 26 49 36.5t54 10.5q12 0 52.5 -12.5t54.5 -12.5q37 0 67 34zM518 621h-145l-53 64
l-54 -64h-147l147 138h107z" />
    <glyph glyph-name="adblgrave.sc" unicode="&#xe00b;" horiz-adv-x="637" 
d="M623 0h-147l-62 135h-189l-64 -135h-147l254 554h99zM359 258l-41 107l-42 -107h83zM504 663l-50 -69l-222 132l62 80zM241 663l-51 -69l-221 132l61 80z" />
    <glyph glyph-name="adotbelow.sc" unicode="&#xe00c;" horiz-adv-x="637" 
d="M623 0h-147l-62 135h-189l-64 -135h-147l254 554h99zM359 258l-41 107l-42 -107h83zM386 -212h-133v133h133v-133z" />
    <glyph glyph-name="ahookabove.sc" unicode="&#xe00d;" horiz-adv-x="637" 
d="M623 0h-147l-62 135h-189l-64 -135h-147l254 554h99zM359 258l-41 107l-42 -107h83zM446 764q0 -46 -58 -85q-21 -14 -26.5 -26.5t-5.5 -44.5h-85v15q0 40 14 62.5t55 50.5q21 15 21 30q0 14 -12.5 23t-32.5 9q-36 0 -43 -44h-84q3 61 39 90t90 29t91 -31.5t37 -77.5z
" />
    <glyph glyph-name="aogonekacute.sc" unicode="&#xe00f;" horiz-adv-x="637" 
d="M623 -231q-47 -19 -76 -19q-53 0 -89.5 32.5t-36.5 82.5q0 72 80 135h-25l-62 135h-189l-64 -135h-147l254 554h99l256 -554q-46 -15 -71 -41.5t-25 -49.5q0 -28 8.5 -40.5t29.5 -12.5q28 0 58 13v-100zM359 258l-41 107l-42 -107h83zM504 724l-227 -120l-51 78l224 134z
" />
    <glyph glyph-name="aringacute.sc" unicode="&#xe010;" horiz-adv-x="637" 
d="M623 0h-147l-62 135h-189l-64 -135h-147l254 554h99zM359 258l-41 107l-42 -107h83zM503 956l-227 -120l-51 78l224 134zM431 703q0 -47 -33 -80t-80 -33t-80 33t-33 80t33 80t81 33q46 0 79 -33t33 -80zM358 703q0 17 -12 28.5t-28 11.5t-28 -11.5t-12 -28.5t12 -28.5
t28 -11.5t28 11.5t12 28.5z" />
    <glyph glyph-name="dcroat.sc" unicode="&#xe011;" horiz-adv-x="626" 
d="M590 275q0 -84 -39.5 -149t-109.5 -96q-65 -30 -191 -30h-147v223h-75v106h75v225h144q138 0 210 -39q64 -35 98.5 -97.5t34.5 -142.5zM457 276q0 45 -21.5 81t-58.5 54q-44 20 -133 20h-9v-102h120v-106h-120v-100h11q92 0 135 22q35 17 55.5 52t20.5 79z" />
    <glyph glyph-name="ddotbelow.sc" unicode="&#xe012;" horiz-adv-x="593" 
d="M557 276q0 -84 -39.5 -149.5t-109.5 -96.5q-65 -30 -191 -30h-147v554h145q137 0 209 -39q64 -35 98.5 -97.5t34.5 -141.5zM424 276q0 45 -21.5 81t-58.5 54q-43 20 -133 20h-8v-308h10q92 0 135 22q35 17 55.5 52.5t20.5 78.5zM315 -212h-133v133h133v-133z" />
    <glyph glyph-name="dlinebelow.sc" unicode="&#xe013;" horiz-adv-x="593" 
d="M557 276q0 -84 -39.5 -149.5t-109.5 -96.5q-65 -30 -191 -30h-147v554h145q137 0 209 -39q64 -35 98.5 -97.5t34.5 -141.5zM424 276q0 45 -21.5 81t-58.5 54q-43 20 -133 20h-8v-308h10q92 0 135 22q35 17 55.5 52.5t20.5 78.5zM389 -196h-277v100h277v-100z" />
    <glyph glyph-name="dotlessi.sc" unicode="&#xe014;" horiz-adv-x="278" 
d="M203 0h-133v554h133v-554z" />
    <glyph glyph-name="dotlessj.sc" unicode="&#xe015;" horiz-adv-x="434" 
d="M366 165q0 -80 -45 -127t-124 -47q-75 0 -123 42.5t-51 120.5h131q4 -40 40 -40q39 0 39 54v386h133v-389z" />
    <glyph glyph-name="ecircumflexacute.sc" unicode="&#xe016;" horiz-adv-x="450" 
d="M405 554v-123h-202v-94h194v-122h-194v-92h202v-123h-335v554h335zM423 899l-227 -120l-51 78l224 134zM438 621h-145l-53 64l-54 -64h-147l147 138h107z" />
    <glyph glyph-name="ecircumflexdotbelow.sc" unicode="&#xe017;" horiz-adv-x="450" 
d="M405 554v-123h-202v-94h194v-122h-194v-92h202v-123h-335v554h335zM438 631h-145l-53 64l-54 -64h-147l147 138h107zM292 -212h-133v133h133v-133z" />
    <glyph glyph-name="ecircumflexgrave.sc" unicode="&#xe018;" horiz-adv-x="450" 
d="M405 554v-123h-202v-94h194v-122h-194v-92h202v-123h-335v554h335zM331 857l-51 -78l-227 120l54 92zM438 621h-145l-53 64l-54 -64h-147l147 138h107z" />
    <glyph glyph-name="ecircumflexhookabove.sc" unicode="&#xe019;" horiz-adv-x="450" 
d="M405 554v-123h-202v-94h194v-122h-194v-92h202v-123h-335v554h335zM438 942q0 -46 -58 -85q-21 -14 -26.5 -26.5t-5.5 -44.5h-85v15q0 40 14 62.5t55 50.5q21 15 21 30q0 14 -12.5 23t-32.5 9q-36 0 -43 -44h-84q3 61 39 90t90 29t91 -31.5t37 -77.5zM438 621h-145
l-53 64l-54 -64h-147l147 138h107z" />
    <glyph glyph-name="ecircumflextilde.sc" unicode="&#xe01a;" horiz-adv-x="450" 
d="M405 554v-123h-202v-94h194v-122h-194v-92h202v-123h-335v554h335zM403 844q-45 -55 -94 -55q-13 0 -58.5 12.5t-54.5 12.5q-18 0 -29.5 -4t-40.5 -21l-54 80q26 26 49 36.5t54 10.5q12 0 52.5 -12.5t54.5 -12.5q37 0 67 34zM438 621h-145l-53 64l-54 -64h-147l147 138
h107z" />
    <glyph glyph-name="edblgrave.sc" unicode="&#xe01b;" horiz-adv-x="450" 
d="M405 554v-123h-202v-94h194v-122h-194v-92h202v-123h-335v554h335zM424 663l-50 -69l-222 132l62 80zM161 663l-51 -69l-221 132l61 80z" />
    <glyph glyph-name="edotbelow.sc" unicode="&#xe01c;" horiz-adv-x="450" 
d="M405 554v-123h-202v-94h194v-122h-194v-92h202v-123h-335v554h335zM292 -212h-133v133h133v-133z" />
    <glyph glyph-name="ehookabove.sc" unicode="&#xe01d;" horiz-adv-x="450" 
d="M405 554v-123h-202v-94h194v-122h-194v-92h202v-123h-335v554h335zM366 764q0 -46 -58 -85q-21 -14 -26.5 -26.5t-5.5 -44.5h-85v15q0 40 14 62.5t55 50.5q21 15 21 30q0 14 -12.5 23t-32.5 9q-36 0 -43 -44h-84q3 61 39 90t90 29t91 -31.5t37 -77.5z" />
    <glyph glyph-name="eogonekacute.sc" unicode="&#xe01e;" horiz-adv-x="450" 
d="M405 -231q-47 -19 -76 -19q-53 0 -89.5 32.5t-36.5 82.5q0 72 80 135h-213v554h335v-123h-202v-94h194v-122h-194v-92h202v-123q-46 -15 -71 -41.5t-25 -49.5q0 -28 8.5 -40.5t29.5 -12.5q28 0 58 13v-100zM410 724l-227 -120l-51 78l224 134z" />
    <glyph glyph-name="ereversed.sc" unicode="&#xe01f;" horiz-adv-x="450" 
d="M405 0h-335v123h203v92h-194v122h194v94h-203v123h335v-554z" />
    <glyph glyph-name="etilde.sc" unicode="&#xe020;" horiz-adv-x="450" 
d="M405 554v-123h-202v-94h194v-122h-194v-92h202v-123h-335v554h335zM403 687q-45 -55 -94 -55q-13 0 -58.5 12.5t-54.5 12.5q-18 0 -29.5 -4t-40.5 -21l-54 80q26 26 49 36.5t54 10.5q12 0 52.5 -12.5t54.5 -12.5q37 0 67 34z" />
    <glyph glyph-name="eturned.sc" unicode="&#xe021;" horiz-adv-x="450" 
d="M405 554v-554h-335v123h203v93h-194v123h194v92h-203v123h335z" />
    <glyph glyph-name="gacute.sc" unicode="&#xe022;" horiz-adv-x="688" 
d="M668 269q0 -113 -90.5 -195.5t-222.5 -82.5q-139 0 -233 83t-94 204q0 118 92.5 201.5t224.5 83.5q105 0 191.5 -55.5t108.5 -137.5h-151q-50 69 -152 69q-78 0 -129 -47t-51 -116t54 -115.5t132 -46.5q92 0 143 62h-225v121h389l13 -15v-13zM530 724l-227 -120l-51 78
l224 134z" />
    <glyph glyph-name="gcaron.sc" unicode="&#xe023;" horiz-adv-x="688" 
d="M668 269q0 -113 -90.5 -195.5t-222.5 -82.5q-139 0 -233 83t-94 204q0 118 92.5 201.5t224.5 83.5q105 0 191.5 -55.5t108.5 -137.5h-151q-50 69 -152 69q-78 0 -129 -47t-51 -116t54 -115.5t132 -46.5q92 0 143 62h-225v121h389l13 -15v-13zM545 769l-147 -138h-107
l-145 138h145l53 -64l54 64h147z" />
    <glyph glyph-name="germandbls.sc" unicode="&#xe024;" horiz-adv-x="959" 
d="M454 174q0 -77 -56.5 -130t-140.5 -53q-87 0 -144 51t-59 137h138q-1 -65 65 -65q28 0 46.5 13.5t18.5 35.5q0 26 -20 40q-18 12 -97 39q-129 45 -129 157q0 68 52.5 116t127.5 48q81 0 133 -49.5t51 -129.5h-136q3 55 -48 55q-21 0 -34 -10t-13 -28q0 -19 25 -34
q12 -6 62 -22q90 -31 124 -70.5t34 -100.5zM905 174q0 -77 -56.5 -130t-140.5 -53q-87 0 -144 51t-59 137h138q-1 -65 65 -65q29 0 47 13.5t18 35.5q0 26 -20 40q-18 12 -97 39q-129 45 -129 157q0 68 53 116t128 48q80 0 132.5 -49.5t51.5 -129.5h-137q2 27 -11 41t-37 14
q-21 0 -33.5 -10t-12.5 -28q0 -20 24 -34q10 -5 62 -22q90 -31 124 -70.5t34 -100.5z" />
    <glyph glyph-name="h_uni0303.sc" unicode="&#xe025;" horiz-adv-x="590" 
d="M515 0h-133v220h-179v-220h-133v554h133v-212h179v212h133v-554zM458 677q-45 -55 -94 -55q-13 0 -58.5 12.5t-54.5 12.5q-18 0 -29.5 -4t-40.5 -21l-54 80q26 26 49 36.5t54 10.5q12 0 52.5 -12.5t54.5 -12.5q37 0 67 34z" />
    <glyph glyph-name="hbrevebelow.sc" unicode="&#xe026;" horiz-adv-x="590" 
d="M515 0h-133v220h-179v-220h-133v554h133v-212h179v212h133v-554zM458 -76q-2 -62 -47.5 -100.5t-116.5 -38.5q-74 0 -118 36.5t-48 102.5h98q18 -43 68 -43q54 0 62 43h102z" />
    <glyph glyph-name="hdieresis.sc" unicode="&#xe027;" horiz-adv-x="590" 
d="M515 0h-133v220h-179v-220h-133v554h133v-212h179v212h133v-554zM250 624h-133v133h133v-133zM460 624h-133v133h133v-133z" />
    <glyph glyph-name="icaron.sc" unicode="&#xe028;" horiz-adv-x="278" 
d="M203 0h-133v554h133v-554zM336 769l-147 -138h-107l-145 138h145l53 -64l54 64h147z" />
    <glyph glyph-name="idblgrave.sc" unicode="&#xe029;" horiz-adv-x="278" 
d="M203 0h-133v554h133v-554zM322 663l-50 -69l-222 132l62 80zM59 663l-51 -69l-221 132l61 80z" />
    <glyph glyph-name="idieresisacute.sc" unicode="&#xe02a;" horiz-adv-x="278" 
d="M203 0h-133v554h133v-554zM93 634h-133v133h133v-133zM303 634h-133v133h133v-133zM321 923l-227 -120l-51 78l224 134z" />
    <glyph glyph-name="idotbelow.sc" unicode="&#xe02c;" horiz-adv-x="278" 
d="M203 0h-133v554h133v-554zM203 -212h-133v133h133v-133z" />
    <glyph glyph-name="ihookabove.sc" unicode="&#xe02d;" horiz-adv-x="278" 
d="M203 0h-133v554h133v-554zM264 764q0 -46 -58 -85q-21 -14 -26.5 -26.5t-5.5 -44.5h-85v15q0 40 14 62.5t55 50.5q21 15 21 30q0 14 -12.5 23t-32.5 9q-36 0 -43 -44h-84q3 61 39 90t90 29t91 -31.5t37 -77.5z" />
    <glyph glyph-name="imacron.alt.sc" unicode="&#xe02e;" horiz-adv-x="278" 
d="M203 0h-133v554h133v-554zM207 650h-137v100h137v-100z" />
    <glyph glyph-name="iogonekacute.sc" unicode="&#xe02f;" horiz-adv-x="278" 
d="M203 -231q-47 -19 -76 -19q-53 0 -89.5 32.5t-36.5 82.5q0 72 80 135h-11v554h133v-554q-46 -15 -71 -41.5t-25 -49.5q0 -28 8.5 -40.5t29.5 -12.5q28 0 58 13v-100zM297 724l-227 -120l-51 78l224 134z" />
    <glyph glyph-name="jacute.sc" unicode="&#xe030;" horiz-adv-x="434" 
d="M366 165q0 -80 -45 -127t-124 -47q-75 0 -123 42.5t-51 120.5h131q4 -40 40 -40q39 0 39 54v386h133v-389zM460 724l-227 -120l-51 78l224 134z" />
    <glyph glyph-name="l_uni0303.sc" unicode="&#xe031;" horiz-adv-x="388" 
d="M379 123v-123h-309v554h133v-431h176zM301 687q-45 -55 -94 -55q-13 0 -58.5 12.5t-54.5 12.5q-18 0 -29.5 -4t-40.5 -21l-54 80q26 26 49 36.5t54 10.5q12 0 52.5 -12.5t54.5 -12.5q37 0 67 34z" />
    <glyph glyph-name="lslash.sc" unicode="&#xe032;" horiz-adv-x="419" 
d="M412 121v-121h-309v181l-75 -56v123l75 56v250h132v-176l111 77v-122l-111 -78v-134h177z" />
    <glyph glyph-name="ocaron.sc" unicode="&#xe033;" horiz-adv-x="691" 
d="M654 277q0 -120 -89 -203t-220 -83q-133 0 -225 83t-92 202q0 121 91.5 204t225.5 83q129 0 219 -84t90 -202zM521 276q0 69 -51.5 116t-125.5 47q-78 0 -130 -46.5t-52 -116.5q0 -68 53 -115t129 -47t126.5 46t50.5 116zM545 769l-147 -138h-107l-145 138h145l53 -64
l54 64h147z" />
    <glyph glyph-name="ocircumflexacute.sc" unicode="&#xe034;" horiz-adv-x="691" 
d="M654 277q0 -120 -89 -203t-220 -83q-133 0 -225 83t-92 202q0 121 91.5 204t225.5 83q129 0 219 -84t90 -202zM521 276q0 69 -51.5 116t-125.5 47q-78 0 -130 -46.5t-52 -116.5q0 -68 53 -115t129 -47t126.5 46t50.5 116zM530 899l-227 -120l-51 78l224 134zM545 621
h-145l-53 64l-54 -64h-147l147 138h107z" />
    <glyph glyph-name="ocircumflexdotbelow.sc" unicode="&#xe035;" horiz-adv-x="691" 
d="M654 277q0 -120 -89 -203t-220 -83q-133 0 -225 83t-92 202q0 121 91.5 204t225.5 83q129 0 219 -84t90 -202zM521 276q0 69 -51.5 116t-125.5 47q-78 0 -130 -46.5t-52 -116.5q0 -68 53 -115t129 -47t126.5 46t50.5 116zM545 631h-145l-53 64l-54 -64h-147l147 138h107z
M412 -203h-133v133h133v-133z" />
    <glyph glyph-name="ocircumflexgrave.sc" unicode="&#xe036;" horiz-adv-x="691" 
d="M654 277q0 -120 -89 -203t-220 -83q-133 0 -225 83t-92 202q0 121 91.5 204t225.5 83q129 0 219 -84t90 -202zM521 276q0 69 -51.5 116t-125.5 47q-78 0 -130 -46.5t-52 -116.5q0 -68 53 -115t129 -47t126.5 46t50.5 116zM438 857l-51 -78l-227 120l54 92zM545 621h-145
l-53 64l-54 -64h-147l147 138h107z" />
    <glyph glyph-name="ocircumflexhookabove.sc" unicode="&#xe037;" horiz-adv-x="691" 
d="M654 277q0 -120 -89 -203t-220 -83q-133 0 -225 83t-92 202q0 121 91.5 204t225.5 83q129 0 219 -84t90 -202zM521 276q0 69 -51.5 116t-125.5 47q-78 0 -130 -46.5t-52 -116.5q0 -68 53 -115t129 -47t126.5 46t50.5 116zM545 942q0 -46 -58 -85q-21 -14 -26.5 -26.5
t-5.5 -44.5h-85v15q0 40 14 62.5t55 50.5q21 15 21 30q0 14 -12.5 23t-32.5 9q-36 0 -43 -44h-84q3 61 39 90t90 29t91 -31.5t37 -77.5zM545 621h-145l-53 64l-54 -64h-147l147 138h107z" />
    <glyph glyph-name="ocircumflextilde.sc" unicode="&#xe038;" horiz-adv-x="691" 
d="M654 277q0 -120 -89 -203t-220 -83q-133 0 -225 83t-92 202q0 121 91.5 204t225.5 83q129 0 219 -84t90 -202zM521 276q0 69 -51.5 116t-125.5 47q-78 0 -130 -46.5t-52 -116.5q0 -68 53 -115t129 -47t126.5 46t50.5 116zM510 844q-45 -55 -94 -55q-13 0 -58.5 12.5
t-54.5 12.5q-18 0 -29.5 -4t-40.5 -21l-54 80q26 26 49 36.5t54 10.5q12 0 52.5 -12.5t54.5 -12.5q37 0 67 34zM545 621h-145l-53 64l-54 -64h-147l147 138h107z" />
    <glyph glyph-name="odblgrave.sc" unicode="&#xe039;" horiz-adv-x="691" 
d="M654 277q0 -120 -89 -203t-220 -83q-133 0 -225 83t-92 202q0 121 91.5 204t225.5 83q129 0 219 -84t90 -202zM521 276q0 69 -51.5 116t-125.5 47q-78 0 -130 -46.5t-52 -116.5q0 -68 53 -115t129 -47t126.5 46t50.5 116zM531 663l-50 -69l-222 132l62 80zM268 663
l-51 -69l-221 132l61 80z" />
    <glyph glyph-name="odotbelow.sc" unicode="&#xe03a;" horiz-adv-x="691" 
d="M654 277q0 -120 -89 -203t-220 -83q-133 0 -225 83t-92 202q0 121 91.5 204t225.5 83q129 0 219 -84t90 -202zM521 276q0 69 -51.5 116t-125.5 47q-78 0 -130 -46.5t-52 -116.5q0 -68 53 -115t129 -47t126.5 46t50.5 116zM412 -212h-133v133h133v-133z" />
    <glyph glyph-name="oe.sc" unicode="&#xe03b;" horiz-adv-x="859" 
d="M813 123v-123h-304v42q-66 -51 -165 -51q-133 0 -221 81.5t-88 203.5q0 123 87 205t218 82q105 0 169 -52v43h304v-123h-169v-94h161v-122h-161v-92h169zM513 276q0 70 -49 116.5t-123 46.5q-75 0 -124 -47.5t-49 -117.5q0 -68 50 -114t124 -46t122.5 46t48.5 116z" />
    <glyph glyph-name="ohookabove.sc" unicode="&#xe03c;" horiz-adv-x="691" 
d="M654 277q0 -120 -89 -203t-220 -83q-133 0 -225 83t-92 202q0 121 91.5 204t225.5 83q129 0 219 -84t90 -202zM521 276q0 69 -51.5 116t-125.5 47q-78 0 -130 -46.5t-52 -116.5q0 -68 53 -115t129 -47t126.5 46t50.5 116zM473 764q0 -46 -58 -85q-21 -14 -26.5 -26.5
t-5.5 -44.5h-85v15q0 40 14 62.5t55 50.5q21 15 21 30q0 14 -12.5 23t-32.5 9q-36 0 -43 -44h-84q3 61 39 90t90 29t91 -31.5t37 -77.5z" />
    <glyph glyph-name="ohorn.sc" unicode="&#xe03d;" horiz-adv-x="740" 
d="M711 554q0 -99 -60 -173q21 -48 21 -104q0 -120 -89 -203t-220 -83q-133 0 -225 83t-92 202q0 121 91.5 204t225.5 83q142 0 233 -98q20 38 20 89h95zM539 276q0 69 -51.5 116t-125.5 47q-78 0 -130 -46.5t-52 -116.5q0 -68 53 -115t129 -47t126.5 46t50.5 116z" />
    <glyph glyph-name="ohornacute.sc" unicode="&#xe03e;" horiz-adv-x="740" 
d="M711 554q0 -99 -60 -173q21 -48 21 -104q0 -120 -89 -203t-220 -83q-133 0 -225 83t-92 202q0 121 91.5 204t225.5 83q142 0 233 -98q20 38 20 89h95zM539 276q0 69 -51.5 116t-125.5 47q-78 0 -130 -46.5t-52 -116.5q0 -68 53 -115t129 -47t126.5 46t50.5 116zM544 724
l-227 -120l-51 78l224 134z" />
    <glyph glyph-name="ohorndotbelow.sc" unicode="&#xe03f;" horiz-adv-x="740" 
d="M711 554q0 -99 -60 -173q21 -48 21 -104q0 -120 -89 -203t-220 -83q-133 0 -225 83t-92 202q0 121 91.5 204t225.5 83q142 0 233 -98q20 38 20 89h95zM539 276q0 69 -51.5 116t-125.5 47q-78 0 -130 -46.5t-52 -116.5q0 -68 53 -115t129 -47t126.5 46t50.5 116zM426 -203
h-133v133h133v-133z" />
    </font>
</defs>
</svg>
